找回密码

查看: 2541|回复: 0

[悬疑] 智齿[国语音轨/中文字幕].Limbo.2021.CHINESE.1080p.BluRay.x264-SilentHD 20.05GB

[复制链接]
蓝光币
1840
发表于 2023-1-8 00:45:26 | 显示全部楼层 |阅读模式


◎标  题 智齿
◎译  名 Limbo
◎片  名 智齒
◎年  代 2021
◎产  地 中国香港 / 中国大陆
◎类  别 悬疑 / 犯罪
◎语  言 粤语 / 汉语普通话
◎上映日期 2021-11-18(中国香港) / 2021-03-03(柏林国际电影节)
◎IMDb评分 7.2/10 (625人评价)
◎IMDb链接 https://www.imdb.com/title/tt14032696/
◎豆瓣评分 7.2/10 (28499人评价)
◎豆瓣链接 https://movie.douban.com/subject/27124695/
◎片  长 118分钟
◎导  演 郑保瑞 Pou-Soi Cheang
◎编  剧 欧健儿 Kin-Yee Au
       岑君茜 Kwan-Sin Shum
       雷米 Mi Lei
◎演  员 林家栋 Ka Tung Lam
       刘雅瑟 Yase Liu
       李淳 Mason Lee
       池内博之 Hiroyuki Ikeuchi
       廖子妤 Fish Liew
       吴岱融 Hugo Ng Doi-Yung
       沈震轩 Sammy Sum
       陈汉娜 Hanna Chan
       苏宸褕 Kumer So
       林晓彤 Iris Lam
       叶伟信 Wilson Yip
       黄柏高 Paco Wong Pak Go
       川井宪次 Kenji Kawai
       郑兆强 Siu-keung Cheng
◎简  介
  《智齿》改编自雷米小说。报告从书院结业的任凯,因一宗连环凶杀案,与刚复职的展哥起头同伴。案子破不了反倒激发连串变乱,展哥重遇杀妻儿的街童王桃,被激起的恨意一发不成整理;任凯大意失枪,误被凶手所获。凶手潜伏在城市当中,危机慢慢逼近。
  1. Video
  2. ID                                       : 1
  3. Format                                   : AVC
  4. Format/Info                              : Advanced Video Codec
  5. Format profile                           : High@L4.1
  6. Format settings                          : CABAC / 5 Ref Frames
  7. Format settings, CABAC                   : Yes
  8. Format settings, Reference frames        : 5 frames
  9. Codec ID                                 : V_MPEG4/ISO/AVC
  10. Duration                                 : 1 h 58 min
  11. Bit rate                                 : 14.4 Mb/s
  12. Width                                    : 1 920 pixels
  13. Height                                   : 804 pixels
  14. Display aspect ratio                     : 2.40:1
  15. Frame rate mode                          : Constant
  16. Frame rate                               : 24.000 FPS
  17. Color space                              : YUV
  18. Chroma subsampling                       : 4:2:0
  19. Bit depth                                : 8 bits
  20. Scan type                                : Progressive
  21. Bits/(Pixel*Frame)                       : 0.388
  22. Stream size                              : 11.9 GiB (59%)
  23. Writing library                          : x264 core 164 r3103 941cae6
  24. Encoding settings                        : cabac=1 / ref=5 / deblock=1:-3:-3 / analyse=0x3:0x133 / me=umh / subme=11 / psy=1 / psy_rd=1.02:0.00 / mixed_ref=1 / me_range=32 / chroma_me=1 / trellis=2 / 8x8dct=1 / cqm=0 / deadzone=21,11 / fast_pskip=0 / chroma_qp_offset=-2 / threads=25 / lookahead_threads=6 / sliced_threads=0 / nr=0 / decimate=0 / interlaced=0 / bluray_compat=0 / constrained_intra=0 / bframes=16 / b_pyramid=2 / b_adapt=2 / b_bias=0 / direct=3 / weightb=1 / open_gop=0 / weightp=2 / keyint=250 / keyint_min=24 / scenecut=40 / intra_refresh=0 / rc_lookahead=250 / rc=crf / mbtree=0 / crf=16.8 / qcomp=0.60 / qpmin=0 / qpmax=69 / qpstep=4 / vbv_maxrate=62500 / vbv_bufsize=78125 / crf_max=0.0 / nal_hrd=none / filler=0 / ip_ratio=1.30 / pb_ratio=1.20 / aq=3:0.80
  25. Default                                  : Yes
  26. Forced                                   : No
  27. Color range                              : Limited
  28. Color primaries                          : BT.709
  29. Matrix coefficients                      : BT.709
  30. Audio #1
  31. ID                                       : 2
  32. Format                                   : MLP FBA
  33. Format/Info                              : Meridian Lossless Packing FBA
  34. Commercial name                          : Dolby TrueHD
  35. Codec ID                                 : A_TRUEHD
  36. Duration                                 : 1 h 58 min
  37. Bit rate mode                            : Variable
  38. Bit rate                                 : 4 238 kb/s
  39. Maximum bit rate                         : 6 144 kb/s
  40. Channel(s)                               : 8 channels
  41. Channel layout                           : L R C LFE Ls Rs Lb Rb
  42. Sampling rate                            : 96.0 kHz
  43. Frame rate                               : 1 200.000 FPS (80 SPF)
  44. Compression mode                         : Lossless
  45. Stream size                              : 3.50 GiB (17%)
  46. Title                                    : Cantonese
  47. Language                                 : Chinese
  48. Default                                  : Yes
  49. Forced                                   : No
  50. Audio #2
  51. ID                                       : 3
  52. Format                                   : AC-3
  53. Format/Info                              : Audio Coding 3
  54. Commercial name                          : Dolby Digital
  55. Format settings                          : Dolby Surround EX
  56. Codec ID                                 : A_AC3
  57. Duration                                 : 1 h 58 min
  58. Bit rate mode                            : Constant
  59. Bit rate                                 : 640 kb/s
  60. Channel(s)                               : 6 channels
  61. Channel layout                           : L R C LFE Ls Rs
  62. Sampling rate                            : 48.0 kHz
  63. Frame rate                               : 31.250 FPS (1536 SPF)
  64. Compression mode                         : Lossy
  65. Stream size                              : 542 MiB (3%)
  66. Title                                    : Cantonese
  67. Language                                 : Chinese
  68. Service kind                             : Complete Main
  69. Default                                  : No
  70. Forced                                   : No
  71. Audio #3
  72. ID                                       : 4
  73. Format                                   : MLP FBA
  74. Format/Info                              : Meridian Lossless Packing FBA
  75. Commercial name                          : Dolby TrueHD
  76. Codec ID                                 : A_TRUEHD
  77. Duration                                 : 1 h 58 min
  78. Bit rate mode                            : Variable
  79. Bit rate                                 : 4 214 kb/s
  80. Maximum bit rate                         : 6 162 kb/s
  81. Channel(s)                               : 8 channels
  82. Channel layout                           : L R C LFE Ls Rs Lb Rb
  83. Sampling rate                            : 96.0 kHz
  84. Frame rate                               : 1 200.000 FPS (80 SPF)
  85. Compression mode                         : Lossless
  86. Stream size                              : 3.48 GiB (17%)
  87. Title                                    : Mandarin
  88. Language                                 : Chinese
  89. Default                                  : No
  90. Forced                                   : No
  91. Audio #4
  92. ID                                       : 5
  93. Format                                   : AC-3
  94. Format/Info                              : Audio Coding 3
  95. Commercial name                          : Dolby Digital
  96. Format settings                          : Dolby Surround EX
  97. Codec ID                                 : A_AC3
  98. Duration                                 : 1 h 58 min
  99. Bit rate mode                            : Constant
  100. Bit rate                                 : 640 kb/s
  101. Channel(s)                               : 6 channels
  102. Channel layout                           : L R C LFE Ls Rs
  103. Sampling rate                            : 48.0 kHz
  104. Frame rate                               : 31.250 FPS (1536 SPF)
  105. Compression mode                         : Lossy
  106. Stream size                              : 542 MiB (3%)
  107. Title                                    : Mandarin
  108. Language                                 : Chinese
  109. Service kind                             : Complete Main
  110. Default                                  : No
  111. Forced                                   : No
  112. Text #1
  113. ID                                       : 6
  114. Format                                   : UTF-8
  115. Codec ID                                 : S_TEXT/UTF8
  116. Codec ID/Info                            : UTF-8 Plain Text
  117. Duration                                 : 1 h 51 min
  118. Bit rate                                 : 13 b/s
  119. Frame rate                               : 0.088 FPS
  120. Count of elements                        : 589
  121. Stream size                              : 11.4 KiB (0%)
  122. Language                                 : English
  123. Default                                  : Yes
  124. Forced                                   : Yes
  125. Text #2
  126. ID                                       : 7
  127. Format                                   : PGS
  128. Muxing mode                              : zlib
  129. Codec ID                                 : S_HDMV/PGS
  130. Codec ID/Info                            : Picture based subtitle format used on BDs/HD-DVDs
  131. Duration                                 : 1 h 51 min
  132. Bit rate                                 : 9 464 b/s
  133. Frame rate                               : 0.176 FPS
  134. Count of elements                        : 1174
  135. Stream size                              : 7.53 MiB (0%)
  136. Language                                 : English
  137. Default                                  : No
  138. Forced                                   : No
  139. Text #3
  140. ID                                       : 8
  141. Format                                   : PGS
  142. Muxing mode                              : zlib
  143. Codec ID                                 : S_HDMV/PGS
  144. Codec ID/Info                            : Picture based subtitle format used on BDs/HD-DVDs
  145. Duration                                 : 1 h 51 min
  146. Bit rate                                 : 9 136 b/s
  147. Frame rate                               : 0.165 FPS
  148. Count of elements                        : 1101
  149. Stream size                              : 7.27 MiB (0%)
  150. Language                                 : English
  151. Default                                  : No
  152. Forced                                   : No
  153. Text #4
  154. ID                                       : 9
  155. Format                                   : PGS
  156. Muxing mode                              : zlib
  157. Codec ID                                 : S_HDMV/PGS
  158. Codec ID/Info                            : Picture based subtitle format used on BDs/HD-DVDs
  159. Duration                                 : 1 h 51 min
  160. Bit rate                                 : 8 522 b/s
  161. Frame rate                               : 0.176 FPS
  162. Count of elements                        : 1174
  163. Stream size                              : 6.78 MiB (0%)
  164. Language                                 : Chinese
  165. Default                                  : No
  166. Forced                                   : No
  167. Text #5
  168. ID                                       : 10
  169. Format                                   : PGS
  170. Muxing mode                              : zlib
  171. Codec ID                                 : S_HDMV/PGS
  172. Codec ID/Info                            : Picture based subtitle format used on BDs/HD-DVDs
  173. Duration                                 : 1 h 51 min
  174. Bit rate                                 : 8 671 b/s
  175. Frame rate                               : 0.165 FPS
  176. Count of elements                        : 1101
  177. Stream size                              : 6.90 MiB (0%)
  178. Language                                 : Chinese
  179. Default                                  : No
  180. Forced                                   : No
  181. Text #6
  182. ID                                       : 11
  183. Format                                   : PGS
  184. Muxing mode                              : zlib
  185. Codec ID                                 : S_HDMV/PGS
  186. Codec ID/Info                            : Picture based subtitle format used on BDs/HD-DVDs
  187. Duration                                 : 1 h 51 min
  188. Bit rate                                 : 8 039 b/s
  189. Frame rate                               : 0.165 FPS
  190. Count of elements                        : 1101
  191. Stream size                              : 6.40 MiB (0%)
  192. Language                                 : Chinese
  193. Default                                  : No
  194. Forced                                   : No
  195. Text #7
  196. ID                                       : 12
  197. Format                                   : PGS
  198. Muxing mode                              : zlib
  199. Codec ID                                 : S_HDMV/PGS
  200. Codec ID/Info                            : Picture based subtitle format used on BDs/HD-DVDs
  201. Duration                                 : 1 h 51 min
  202. Bit rate                                 : 7 925 b/s
  203. Frame rate                               : 0.176 FPS
  204. Count of elements                        : 1174
  205. Stream size                              : 6.31 MiB (0%)
  206. Language                                 : Chinese
  207. Default                                  : No
  208. Forced                                   : No
  209. Menu
  210. 00:00:00.000                             : Chapter 01
  211. 00:11:57.208                             : Chapter 02
  212. 00:18:29.458                             : Chapter 03
  213. 00:29:25.792                             : Chapter 04
  214. 00:36:50.042                             : Chapter 05
  215. 00:44:25.542                             : Chapter 06
  216. 00:58:08.875                             : Chapter 07
  217. 01:10:39.708                             : Chapter 08
  218. 01:20:26.208                             : Chapter 09
  219. 01:31:19.750                             : Chapter 10
  220. 01:43:11.250                             : Chapter 11
  221. 01:54:21.500                             : Chapter 12
复制代码











回复

使用道具 举报

懒得打字嘛,点击右侧快捷回复 【右侧内容,后台自定义】
您需要登录后才可以回帖 登录 | 立即加入

本版积分规则

Copyright © 2024 Comsenz Inc. Powered by 蓝光电影网

本站内容由用户自主分享和转载自互联网,转载目的在于传递更多信息,并不代表本网赞同其观点和对其真实性负责。

如有侵权、违反国家法律政策行为,请联系我们,我们会第一时间及时清除和处理!

举报反馈邮箱:4k1080.com@gmail.com

快速回复 返回顶部 返回列表