找回密码

蓝光电影网

查看: 60|回复: 0

[剧情] 小奥德萨[中文字幕].Little.Odessa.1994.1080p.BluRay.x264.DDP5.1-PTer 11.14GB

[复制链接]
蓝光币
1127
发表于 2023-1-8 00:45:27 | 显示全部楼层 |阅读模式


◎标  题 小奥德萨
◎译  名 杀手怨曲 / 杀手悲歌 / 小敖德萨
◎片  名 Little Odessa
◎年  代 1994
◎产  地 美国
◎类  别 剧情 / 犯罪
◎语  言 英语
◎上映日期 1994-09-02(威尼斯电影节)
◎IMDb评分 6.7/10 (8328人评价)
◎IMDb链接 https://www.imdb.com/title/tt0110365/
◎豆瓣评分 7.5/10 (1129人评价)
◎豆瓣链接 https://movie.douban.com/subject/1295183/
◎片  长 98 分钟
◎导  演 詹姆斯·格雷 James Gray
◎编  剧 詹姆斯·格雷 James Gray
◎演  员 蒂姆·罗斯 Tim Roth
       爱德华·福隆 Edward Furlong
       莫伊拉·凯利 Moira Kelly
       瓦妮莎·雷德格雷夫 Vanessa Redgrave
       尼克·维克斯勒 Nick Wechsler
       凯瑞·奥伦特 Kerry Orent
       汤姆·里士满 Tom Richmond
       凯文·汤普森 Kevin Thompson
       朱迪·瑞 Judy Rhee
◎简  介
  影片简介                                       
                                    做了多年职业杀手的乔舒亚在一次条约途中,要在小奥德萨逗留,由于昔时的他就是从这俄罗斯移民区跑进来闯荡江湖的,这里有他的亲人和朋友。可是此次探亲完全失利,母亲沉痾不起,父亲嫌他名声欠好,态度冷淡,昔日的恋爱和兄弟间的手足情都已成为昙花一现,而惟有当地的黑帮对他的旧怨一丝没有消退...                                       
                                                                           
                                                                           
                                    影片评价                                       
                                    最初,导演James Gray万事俱备, 只是找不到理想的男配角----一个青年版帕西诺, 很巧他看了《凡高与提奥》, 那时的反应就是"这人是谁!", 他那时还没看过《落水狗》, 立即找了来看, 看完了决议Tim就是乔舒亚;                                       
                                                                           
                                    他随后去找Tim, Tim和他谈事后, 立即赞成出演: 那时他既没看剧本也没问代价, 就间接签上了自已的名字. 对此Gray对记者说: 他, 有种.                                       
                                                                           
                                    对片中的一段床戏...
  1. Video
  2. ID                                       : 1
  3. Format                                   : AVC
  4. Format/Info                              : Advanced Video Codec
  5. Format profile                           : [email protected]
  6. Format settings                          : CABAC / 5 Ref Frames
  7. Format settings, CABAC                   : Yes
  8. Format settings, Reference frames        : 5 frames
  9. Codec ID                                 : V_MPEG4/ISO/AVC
  10. Duration                                 : 1 h 38 min
  11. Bit rate                                 : 15.1 Mb/s
  12. Width                                    : 1 920 pixels
  13. Height                                   : 804 pixels
  14. Display aspect ratio                     : 2.40:1
  15. Frame rate mode                          : Constant
  16. Frame rate                               : 23.976 (24000/1001) FPS
  17. Color space                              : YUV
  18. Chroma subsampling                       : 4:2:0
  19. Bit depth                                : 8 bits
  20. Scan type                                : Progressive
  21. Bits/(Pixel*Frame)                       : 0.407
  22. Stream size                              : 10.4 GiB (93%)
  23. Writing library                          : x264 core 164 r3094 bfc87b7
  24. Encoding settings                        : cabac=1 / ref=5 / deblock=1:-3:-3 / analyse=0x3:0x133 / me=umh / subme=10 / psy=1 / psy_rd=1.02:0.00 / mixed_ref=1 / me_range=32 / chroma_me=1 / trellis=2 / 8x8dct=1 / cqm=0 / deadzone=21,11 / fast_pskip=0 / chroma_qp_offset=-2 / threads=18 / lookahead_threads=3 / sliced_threads=0 / nr=0 / decimate=0 / interlaced=0 / bluray_compat=0 / constrained_intra=0 / bframes=8 / b_pyramid=2 / b_adapt=2 / b_bias=0 / direct=3 / weightb=1 / open_gop=0 / weightp=2 / keyint=250 / keyint_min=23 / scenecut=40 / intra_refresh=0 / rc_lookahead=250 / rc=crf / mbtree=0 / crf=15.1 / qcomp=0.60 / qpmin=0 / qpmax=69 / qpstep=4 / vbv_maxrate=62500 / vbv_bufsize=78125 / crf_max=0.0 / nal_hrd=none / filler=0 / ip_ratio=1.40 / pb_ratio=1.30 / aq=3:0.80 / zones=136081,141696,b=0.5
  25. Default                                  : Yes
  26. Forced                                   : No
  27. Color range                              : Limited
  28. Color primaries                          : BT.709
  29. Matrix coefficients                      : BT.709
  30. Audio #1
  31. ID                                       : 2
  32. Format                                   : E-AC-3
  33. Format/Info                              : Enhanced AC-3
  34. Commercial name                          : Dolby Digital Plus
  35. Codec ID                                 : A_EAC3
  36. Duration                                 : 1 h 38 min
  37. Bit rate mode                            : Constant
  38. Bit rate                                 : 1 024 kb/s
  39. Channel(s)                               : 6 channels
  40. Channel layout                           : L R C LFE Ls Rs
  41. Sampling rate                            : 48.0 kHz
  42. Frame rate                               : 31.250 FPS (1536 SPF)
  43. Compression mode                         : Lossy
  44. Stream size                              : 721 MiB (6%)
  45. Language                                 : English
  46. Service kind                             : Complete Main
  47. Default                                  : Yes
  48. Forced                                   : No
  49. Audio #2
  50. ID                                       : 3
  51. Format                                   : AAC LC
  52. Format/Info                              : Advanced Audio Codec Low Complexity
  53. Codec ID                                 : A_AAC-2
  54. Duration                                 : 1 h 38 min
  55. Bit rate                                 : 100 kb/s
  56. Channel(s)                               : 2 channels
  57. Channel layout                           : L R
  58. Sampling rate                            : 48.0 kHz
  59. Frame rate                               : 46.875 FPS (1024 SPF)
  60. Compression mode                         : Lossy
  61. Delay relative to video                  : 3 s 500 ms
  62. Stream size                              : 70.7 MiB (1%)
  63. Title                                    : Commentary by Frank Djeng and Michael Worth
  64. Language                                 : English
  65. Default                                  : No
  66. Forced                                   : No
  67. Text #1
  68. ID                                       : 4
  69. Format                                   : UTF-8
  70. Codec ID                                 : S_TEXT/UTF8
  71. Codec ID/Info                            : UTF-8 Plain Text
  72. Duration                                 : 1 h 31 min
  73. Bit rate                                 : 27 b/s
  74. Frame rate                               : 0.116 FPS
  75. Count of elements                        : 640
  76. Stream size                              : 18.3 KiB (0%)
  77. Language                                 : English
  78. Default                                  : No
  79. Forced                                   : No
  80. Text #2
  81. ID                                       : 5
  82. Format                                   : UTF-8
  83. Codec ID                                 : S_TEXT/UTF8
  84. Codec ID/Info                            : UTF-8 Plain Text
  85. Duration                                 : 1 h 34 min
  86. Bit rate                                 : 24 b/s
  87. Frame rate                               : 0.114 FPS
  88. Count of elements                        : 646
  89. Stream size                              : 17.2 KiB (0%)
  90. Title                                    : Simplified Chinese
  91. Language                                 : Chinese
  92. Default                                  : No
  93. Forced                                   : No
  94. Text #3
  95. ID                                       : 6
  96. Format                                   : UTF-8
  97. Codec ID                                 : S_TEXT/UTF8
  98. Codec ID/Info                            : UTF-8 Plain Text
  99. Duration                                 : 1 h 34 min
  100. Bit rate                                 : 24 b/s
  101. Frame rate                               : 0.114 FPS
  102. Count of elements                        : 646
  103. Stream size                              : 17.2 KiB (0%)
  104. Title                                    : Traditional Chinese
  105. Language                                 : Chinese
  106. Default                                  : No
  107. Forced                                   : No
  108. Text #4
  109. ID                                       : 7
  110. Format                                   : PGS
  111. Muxing mode                              : zlib
  112. Codec ID                                 : S_HDMV/PGS
  113. Codec ID/Info                            : Picture based subtitle format used on BDs/HD-DVDs
  114. Duration                                 : 1 h 36 min
  115. Bit rate                                 : 9 911 b/s
  116. Frame rate                               : 0.216 FPS
  117. Count of elements                        : 1254
  118. Stream size                              : 6.85 MiB (0%)
  119. Language                                 : French
  120. Default                                  : No
  121. Forced                                   : No
  122. Text #5
  123. ID                                       : 8
  124. Format                                   : PGS
  125. Muxing mode                              : zlib
  126. Codec ID                                 : S_HDMV/PGS
  127. Codec ID/Info                            : Picture based subtitle format used on BDs/HD-DVDs
  128. Duration                                 : 1 h 32 min
  129. Bit rate                                 : 291 b/s
  130. Frame rate                               : 0.008 FPS
  131. Count of elements                        : 44
  132. Stream size                              : 196 KiB (0%)
  133. Title                                    : French Forced
  134. Language                                 : French
  135. Default                                  : No
  136. Forced                                   : Yes
  137. Menu
  138. 00:00:00.000                             : en:Chapter 1
  139. 00:05:32.749                             : en:Chapter 2
  140. 00:10:47.605                             : en:Chapter 3
  141. 00:18:30.568                             : en:Chapter 4
  142. 00:25:11.927                             : en:Chapter 5
  143. 00:28:21.575                             : en:Chapter 6
  144. 00:33:40.101                             : en:Chapter 7
  145. 00:38:28.264                             : en:Chapter 8
  146. 00:42:54.739                             : en:Chapter 9
  147. 00:47:54.205                             : en:Chapter 10
  148. 00:53:09.728                             : en:Chapter 11
  149. 00:58:20.914                             : en:Chapter 12
  150. 01:01:58.840                             : en:Chapter 13
  151. 01:08:43.911                             : en:Chapter 14
  152. 01:14:51.612                             : en:Chapter 15
  153. 01:18:36.879                             : en:Chapter 16
  154. 01:23:38.472                             : en:Chapter 17
  155. 01:30:19.873                             : en:Chapter 18
  156. 01:34:39.090                             : en:Chapter 19
  157. 01:38:29.862                             : en:Chapter 20
复制代码











回复

使用道具 举报

懒得打字嘛,点击右侧快捷回复 【右侧内容,后台自定义】
您需要登录后才可以回帖 登录 | 立即加入

本版积分规则

Archiver|小黑屋| 蓝光电影网 |网站地图

Copyright © 2021 Comsenz Inc. Powered by 蓝光电影网

蓝光电影网

本站内容由用户自主分享和转载自互联网,转载目的在于传递更多信息,并不代表本网赞同其观点和对其真实性负责。

如有侵权、违反国家法律政策行为,请联系我们,我们会第一时间及时清除和处理!

举报反馈邮箱:[email protected]

快速回复 返回顶部 返回列表