找回密码

蓝光电影网

查看: 1079|回复: 0

[喜剧] 爱神艳史.One.Touch.of.Venus.1948.1080p.BluRay.x264.DD2.0-KESH 5.79GB

[复制链接]
蓝光币
1688
发表于 2023-1-8 00:45:27 | 显示全部楼层 |阅读模式


◎标  题 爱神艳史
◎译  名 打仗维纳斯
◎片  名 One Touch of Venus
◎年  代 1948
◎产  地 美国
◎类  别 笑剧 / 恋爱 / 歌舞 / 奇异
◎语  言 英语
◎上映日期 1948-10-28
◎IMDb评分 6.6/10 (1376人评价)
◎IMDb链接 https://www.imdb.com/title/tt0040669/
◎豆瓣评分 6.7/10 (143人评价)
◎豆瓣链接 https://movie.douban.com/subject/1931556/
◎片  长 82 分钟
◎导  演 威廉·A·塞特尔 William A. Seiter
       格雷戈里·拉·卡瓦 Gregory La Cava
◎编  剧 哈里·库尼兹 Harry Kurnitz
       弗兰克·塔许林 Frank Tashlin
       F. Anstey F. Anstey
       奥咯噔·纳什 Ogden Nash
       西德尼·J·佩雷尔曼 S.J. Perelman
◎演  员 艾娃·加德纳 Ava Gardner
       罗伯特·沃克 Robert Walker
       查尔兹·歇洛克 Charles Sherlock
       Frances Mack Frances Mack
       拉尔夫·彼得斯 Ralph Peters
       乔治·米克 George Meeker
       Robert McCord Robert McCord
       Kenneth Patterson Kenneth Patterson
       安妮·内格尔 Anne Nagel
       Eddie Parker Eddie Parker
       Josephine Whittell Josephine Whittell
       奥尔加·圣胡安 Olga San Juan
       Martha Montgomery Martha Montgomery
       Joan Miller Joan Miller
       Jerry Marlowe Jerry Marlowe
       休·赫伯特 Hugh Herbert
       萨拉·奥尔古德 Sara Allgood
       伊芙·阿登 Eve Arden
       汤姆·康威 Tom Conway
       迪克·海默斯 Dick Haymes
       乔治·J·刘易斯 George J. Lewis
       玛丽·贝努瓦 Mary Benoit
       Ralph Brooks Ralph Brooks
       拉斯·康威 Russ Conway
       基诺科拉多 Gino Corrado
       詹姆斯·弗莱文 James Flavin
       约翰·戴维森 John Davidson
       贝丝·弗劳尔斯 Bess Flowers
       Joel Friend Joel Friend
       迪克·戈登 Dick Gordon
       阿瑟·奥康纳 Arthur O'Connell
       威廉·A·塞特尔 William A. Seiter
       John Beck John Beck
       Lester Cowan Lester Cowan
       科特·维尔 Kurt Weill
       安·罗奈尔 Ann Ronell
       弗兰茨·普拉纳 Franz Planer
       奥托·路德维希 Otto Ludwig
       罗素·A·盖斯曼 Russell A. Gausman
       伯纳德·赫兹布伦 Bernard Herzbrun
       Emrich Nicholson Emrich Nicholson
       A·罗兰德·菲尔德斯 A. Roland Fields
       奥里-凯利 Orry-Kelly
       Carmen Dirigo Carmen Dirigo
       百德·沃斯塔梅尔 Bud Westmore
◎简  介
  One Touch of Venus (1948) is a film directed by William A. Seiter, starring Robert Walker and Ava Gardner, released by Universal Studios, and based on the Broadway musical of the same name written by Kurt Weill. However, the film omits most of Weill's music and thus got poor reviews.                                       
                                    In 1945, Mary Pickford announced that she would produce a film version of this musical with the...
  1. Video
  2. ID                                       : 1
  3. Format                                   : AVC
  4. Format/Info                              : Advanced Video Codec
  5. Format profile                           : High@L4
  6. Format settings                          : CABAC / 1 Ref Frames
  7. Format settings, CABAC                   : Yes
  8. Format settings, Reference frames        : 1 frame
  9. Codec ID                                 : V_MPEG4/ISO/AVC
  10. Duration                                 : 1 h 21 min
  11. Bit rate mode                            : Variable
  12. Bit rate                                 : 9 933 kb/s
  13. Maximum bit rate                         : 20.0 Mb/s
  14. Width                                    : 1 476 pixels
  15. Height                                   : 1 080 pixels
  16. Display aspect ratio                     : 4:3
  17. Frame rate mode                          : Constant
  18. Frame rate                               : 23.976 (24000/1001) FPS
  19. Color space                              : YUV
  20. Chroma subsampling                       : 4:2:0
  21. Bit depth                                : 8 bits
  22. Scan type                                : Progressive
  23. Bits/(Pixel*Frame)                       : 0.260
  24. Stream size                              : 5.68 GiB (98%)
  25. Language                                 : English
  26. Default                                  : Yes
  27. Forced                                   : No
  28. Audio
  29. ID                                       : 2
  30. Format                                   : AC-3
  31. Format/Info                              : Audio Coding 3
  32. Commercial name                          : Dolby Digital
  33. Codec ID                                 : A_AC3
  34. Duration                                 : 1 h 21 min
  35. Bit rate mode                            : Constant
  36. Bit rate                                 : 192 kb/s
  37. Channel(s)                               : 2 channels
  38. Channel layout                           : L R
  39. Sampling rate                            : 48.0 kHz
  40. Frame rate                               : 31.250 FPS (1536 SPF)
  41. Compression mode                         : Lossy
  42. Stream size                              : 113 MiB (2%)
  43. Language                                 : English
  44. Service kind                             : Complete Main
  45. Default                                  : Yes
  46. Forced                                   : No
  47. Text #1
  48. ID                                       : 3
  49. Format                                   : UTF-8
  50. Codec ID                                 : S_TEXT/UTF8
  51. Codec ID/Info                            : UTF-8 Plain Text
  52. Duration                                 : 1 h 19 min
  53. Bit rate                                 : 74 b/s
  54. Frame rate                               : 0.304 FPS
  55. Count of elements                        : 1444
  56. Stream size                              : 43.2 KiB (0%)
  57. Language                                 : English
  58. Default                                  : Yes
  59. Forced                                   : No
  60. Text #2
  61. ID                                       : 4
  62. Format                                   : UTF-8
  63. Codec ID                                 : S_TEXT/UTF8
  64. Codec ID/Info                            : UTF-8 Plain Text
  65. Duration                                 : 1 h 20 min
  66. Bit rate                                 : 87 b/s
  67. Frame rate                               : 0.299 FPS
  68. Count of elements                        : 1451
  69. Stream size                              : 52.0 KiB (0%)
  70. Language                                 : French
  71. Default                                  : No
  72. Forced                                   : No
复制代码











回复

使用道具 举报

懒得打字嘛,点击右侧快捷回复 【右侧内容,后台自定义】
您需要登录后才可以回帖 登录 | 立即加入

本版积分规则

Archiver|小黑屋| 蓝光电影网 |网站地图

Copyright © 2021 Comsenz Inc. Powered by 蓝光电影网

蓝光电影网

本站内容由用户自主分享和转载自互联网,转载目的在于传递更多信息,并不代表本网赞同其观点和对其真实性负责。

如有侵权、违反国家法律政策行为,请联系我们,我们会第一时间及时清除和处理!

举报反馈邮箱:4k1080.com@gmail.com

快速回复 返回顶部 返回列表