找回密码

蓝光电影网

查看: 904|回复: 0

[喜剧] 泰迪.Teddy.2020.FRENCH.1080p.BluRay.x264.DDP5.1-SbR 10.12GB

[复制链接]
蓝光币
1704
发表于 2023-1-8 00:45:28 | 显示全部楼层 |阅读模式


◎标  题 泰迪
◎片  名 Teddy
◎年  代 2020
◎产  地 法国
◎类  别 笑剧 / 奇异
◎语  言 法语
◎上映日期 2020-09-05(多维尔电影节) / 2021-06-30(法国)
◎IMDb评分 6/10 (1636人评价)
◎IMDb链接 https://www.imdb.com/title/tt10469804/
◎豆瓣评分 6.2/10 (323人评价)
◎豆瓣链接 https://movie.douban.com/subject/34954349/
◎片  长 88分钟
◎导  演 卢多维克·布克尔玛 Ludovic Boukherma
       佐然·布克尔玛 Zoran Boukherma
◎编  剧 卢多维克·布克尔玛 Ludovic Boukherma
       佐然·布克尔玛 Zoran Boukherma
◎演  员 安东尼·巴容 Anthony Bajon
       诺埃米·洛夫斯基 Noémie Lvovsky
       Christine Gautier Christine Gautier
◎简  介
    In a rural French town, twenty-something Teddy is scratched by an unknown beast and slowly undergoes frightening changes.
  1. Video
  2. ID                                       : 1
  3. Format                                   : AVC
  4. Format/Info                              : Advanced Video Codec
  5. Format profile                           : High@L4.1
  6. Format settings                          : CABAC / 4 Ref Frames
  7. Format settings, CABAC                   : Yes
  8. Format settings, Reference frames        : 4 frames
  9. Codec ID                                 : V_MPEG4/ISO/AVC
  10. Duration                                 : 1 h 28 min
  11. Bit rate                                 : 15.3 Mb/s
  12. Width                                    : 1 794 pixels
  13. Height                                   : 1 080 pixels
  14. Display aspect ratio                     : 5:3
  15. Frame rate mode                          : Constant
  16. Frame rate                               : 23.976 (24000/1001) FPS
  17. Color space                              : YUV
  18. Chroma subsampling                       : 4:2:0
  19. Bit depth                                : 8 bits
  20. Scan type                                : Progressive
  21. Bits/(Pixel*Frame)                       : 0.329
  22. Stream size                              : 9.48 GiB (94%)
  23. Writing library                          : x264 core 164 r3100+49 ee821bd devel [(8 & 10)-bit@all X86_64]
  24. Encoding settings                        : cabac=1 / ref=4 / deblock=1:-3:-3 / analyse=0x3:0x133 / me=umh / subme=11 / psy=1 / fade_compensate=0.00 / psy_rd=1.00:0.00 / mixed_ref=1 / me_range=32 / chroma_me=1 / trellis=2 / 8x8dct=1 / cqm=0 / deadzone=21,11 / fast_pskip=1 / chroma_qp_offset=-2 / threads=32 / lookahead_threads=8 / sliced_threads=0 / nr=0 / decimate=1 / interlaced=0 / bluray_compat=0 / constrained_intra=0 / fgo=0 / bframes=10 / b_pyramid=2 / b_adapt=2 / b_bias=0 / direct=3 / weightb=1 / open_gop=0 / weightp=2 / keyint=250 / keyint_min=23 / scenecut=40 / intra_refresh=0 / rc=crf / mbtree=0 / crf=16.7000 / qcomp=0.60 / qpmin=0:0:0 / qpmax=69:69:69 / qpstep=4 / ip_ratio=1.25 / pb_ratio=1.20 / aq=3:0.80 / aq-sensitivity=10.00 / aq-factor=1.00:1.00:1.00 / aq2=0 / aq3=0
  25. Language                                 : French
  26. Default                                  : Yes
  27. Forced                                   : No
  28. Audio
  29. ID                                       : 2
  30. Format                                   : E-AC-3
  31. Format/Info                              : Enhanced AC-3
  32. Commercial name                          : Dolby Digital Plus
  33. Codec ID                                 : A_EAC3
  34. Duration                                 : 1 h 28 min
  35. Bit rate mode                            : Constant
  36. Bit rate                                 : 1 024 kb/s
  37. Channel(s)                               : 6 channels
  38. Channel layout                           : L R C LFE Ls Rs
  39. Sampling rate                            : 48.0 kHz
  40. Frame rate                               : 31.250 FPS (1536 SPF)
  41. Compression mode                         : Lossy
  42. Stream size                              : 651 MiB (6%)
  43. Language                                 : French
  44. Service kind                             : Complete Main
  45. Default                                  : Yes
  46. Forced                                   : No
  47. Text #1
  48. ID                                       : 3
  49. Format                                   : ASS
  50. Codec ID                                 : S_TEXT/ASS
  51. Codec ID/Info                            : Advanced Sub Station Alpha
  52. Duration                                 : 1 h 27 min
  53. Bit rate                                 : 61 b/s
  54. Frame rate                               : 0.155 FPS
  55. Count of elements                        : 816
  56. Compression mode                         : Lossless
  57. Stream size                              : 39.6 KiB (0%)
  58. Language                                 : English
  59. Default                                  : No
  60. Forced                                   : No
  61. Text #2
  62. ID                                       : 4
  63. Format                                   : UTF-8
  64. Codec ID                                 : S_TEXT/UTF8
  65. Codec ID/Info                            : UTF-8 Plain Text
  66. Duration                                 : 1 h 27 min
  67. Bit rate                                 : 34 b/s
  68. Frame rate                               : 0.155 FPS
  69. Count of elements                        : 816
  70. Stream size                              : 22.0 KiB (0%)
  71. Language                                 : English
  72. Default                                  : No
  73. Forced                                   : No
  74. Text #3
  75. ID                                       : 5
  76. Format                                   : ASS
  77. Codec ID                                 : S_TEXT/ASS
  78. Codec ID/Info                            : Advanced Sub Station Alpha
  79. Duration                                 : 1 h 27 min
  80. Bit rate                                 : 133 b/s
  81. Frame rate                               : 0.237 FPS
  82. Count of elements                        : 1248
  83. Compression mode                         : Lossless
  84. Stream size                              : 85.8 KiB (0%)
  85. Language                                 : French
  86. Default                                  : No
  87. Forced                                   : No
  88. Menu
  89. 00:00:00.000                             : en:Chapter 01
  90. 00:08:48.027                             : en:Chapter 02
  91. 00:14:47.095                             : en:Chapter 03
  92. 00:20:54.044                             : en:Chapter 04
  93. 00:26:25.167                             : en:Chapter 05
  94. 00:33:12.657                             : en:Chapter 06
  95. 00:42:07.567                             : en:Chapter 07
  96. 00:49:45.524                             : en:Chapter 08
  97. 00:57:16.808                             : en:Chapter 09
  98. 01:09:56.275                             : en:Chapter 10
  99. 01:16:54.193                             : en:Chapter 11
  100. 01:25:16.945                             : en:Chapter 12
复制代码











回复

使用道具 举报

懒得打字嘛,点击右侧快捷回复 【右侧内容,后台自定义】
您需要登录后才可以回帖 登录 | 立即加入

本版积分规则

Archiver|小黑屋| 蓝光电影网 |网站地图

Copyright © 2021 Comsenz Inc. Powered by 蓝光电影网

蓝光电影网

本站内容由用户自主分享和转载自互联网,转载目的在于传递更多信息,并不代表本网赞同其观点和对其真实性负责。

如有侵权、违反国家法律政策行为,请联系我们,我们会第一时间及时清除和处理!

举报反馈邮箱:4k1080.com@gmail.com

快速回复 返回顶部 返回列表