找回密码

蓝光电影网

查看: 935|回复: 0

[剧情] 第二次呼吸.Le.deuxieme.souffle.2007.FRENCH.1080p.BluRay.x264.DDP5.1-SbR 15.17GB

[复制链接]
蓝光币
1704
发表于 2023-1-8 00:45:28 | 显示全部楼层 |阅读模式


◎标  题 第二次呼吸
◎译  名 第2次呼吸 / The Second Wind
◎片  名 Le deuxième souffle
◎年  代 2007
◎产  地 法国
◎类  别 剧情 / 悬疑 / 犯罪
◎语  言 法语
◎上映日期 2007年10月24日
◎IMDb评分 5.7/10 (1175人评价)
◎IMDb链接 https://www.imdb.com/title/tt0795370/
◎豆瓣评分 5.8/10 (201人评价)
◎豆瓣链接 https://movie.douban.com/subject/1825930/
◎导  演 阿兰·科诺
◎编  剧 阿兰·科诺
       何塞·乔凡尼
◎演  员 丹尼尔·奥特伊
       莫妮卡·贝鲁奇
       米歇尔·布朗
       雅克·迪特隆
       埃里克·坎通纳
       丹尼尔·杜瓦尔
       尼古拉斯·迪佛休尔
       贾克·鲍那非
       菲利普·纳翁
       让-保罗·博奈雷
       法朗西斯·瑞纳德
       菲利普·谢纳
◎简  介
  纯熟的黑帮份子古斯塔夫从牢狱逃出来,不意却卷入了一场黑帮谋杀。他筹算再大捞一票前进隐江湖,但却被警探布洛特亲近监视着。很快,古斯塔夫四周楚歌,他发现黑帮朋友并没有如此高尚的做人原则...
                                    
                                幕后建造:
                                    
                                《第二次呼吸》(Deuxième souffle, Le) 是导演亚伦·科诺按照让·皮埃尔·梅尔维尔1966年拍摄的典范同名影片改编而翻拍而成的,成为第二届意大利罗马电影节的开幕影片。
                                    
                                片中女配角由意大利传奇美男莫妮卡·贝鲁奇担任,加盟这部影片的明星,还有法国影音双栖明星丹尼尔·奥特尤尔以及前法国足球明星埃里克·坎通纳。
                                    
                                这是一部剧情繁复的警匪片,着意表示黑白两道复杂的声誉观,特别是虔诚和变节的抵触。《第二次呼吸》是一部黑帮题材的法国影片,法国影帝丹尼尔·奥特尤尔(Daniel Auteuil)在片中饰演上了年数的黑社会成员,贝鲁奇与他对手演他的情妇。
                                    
                                改编自Jose' Giovanni小说的《第二次呼吸》在1966年曾被黑色警匪电影大师梅尔维尔(Jean-Pierre Melville)搬上大银幕,报告了一个黑帮成员从狱中逃走后,回到他深爱的女人身旁,同时也重新踏入了布满暴力和犯罪的天下。
                                    
                                1960年,被判毕生禁锢的一位著名的黑帮大盗GU夜里从狱中逃走,他回到他之前的情妇玛努什身旁,他一方面回避追缉他的差人局长布洛,另一方面由于缺钱,他召集了4个同党,预备犯下最初一票抢劫案。
                                    
                                贝鲁奇说她塑造脚色时遭到了凯瑟琳·德纳芙(Catherine Deneuve)等50年月银幕偶像的启发。
                                    
                                ·影片获2008年法国恺撒奖三项提名
                                    
                                2007年多伦多电影节展映作品
                                    
                                2008年罗马国际电影节开幕影片
  1. Video
  2. ID                                       : 1
  3. Format                                   : AVC
  4. Format/Info                              : Advanced Video Codec
  5. Format profile                           : High@L4.1
  6. Format settings                          : CABAC / 4 Ref Frames
  7. Format settings, CABAC                   : Yes
  8. Format settings, Reference frames        : 4 frames
  9. Codec ID                                 : V_MPEG4/ISO/AVC
  10. Duration                                 : 2 h 35 min
  11. Bit rate                                 : 12.9 Mb/s
  12. Width                                    : 1 920 pixels
  13. Height                                   : 1 080 pixels
  14. Display aspect ratio                     : 16:9
  15. Frame rate mode                          : Constant
  16. Frame rate                               : 24.000 FPS
  17. Color space                              : YUV
  18. Chroma subsampling                       : 4:2:0
  19. Bit depth                                : 8 bits
  20. Scan type                                : Progressive
  21. Bits/(Pixel*Frame)                       : 0.259
  22. Stream size                              : 14.0 GiB (93%)
  23. Writing library                          : x264 core 164 r3094+49M 0246926 devel [(8 & 10)-bit@all X86_64]
  24. Encoding settings                        : cabac=1 / ref=4 / deblock=1:-3:-3 / analyse=0x3:0x133 / me=umh / subme=11 / psy=1 / fade_compensate=0.00 / psy_rd=1.00:0.00 / mixed_ref=1 / me_range=32 / chroma_me=1 / trellis=2 / 8x8dct=1 / cqm=0 / deadzone=21,11 / fast_pskip=1 / chroma_qp_offset=-2 / threads=32 / lookahead_threads=8 / sliced_threads=0 / nr=0 / decimate=1 / interlaced=0 / bluray_compat=0 / constrained_intra=0 / fgo=0 / bframes=10 / b_pyramid=2 / b_adapt=2 / b_bias=0 / direct=3 / weightb=1 / open_gop=0 / weightp=2 / keyint=250 / keyint_min=24 / scenecut=40 / intra_refresh=0 / rc=crf / mbtree=0 / crf=19.0000 / qcomp=0.65 / qpmin=0:0:0 / qpmax=69:69:69 / qpstep=4 / ip_ratio=1.25 / pb_ratio=1.20 / aq=1:0.60 / aq-sensitivity=10.00 / aq-factor=1.00:1.00:1.00 / aq2=0 / aq3=0
  25. Language                                 : French
  26. Default                                  : Yes
  27. Forced                                   : No
  28. Audio
  29. ID                                       : 2
  30. Format                                   : E-AC-3
  31. Format/Info                              : Enhanced AC-3
  32. Commercial name                          : Dolby Digital Plus
  33. Codec ID                                 : A_EAC3
  34. Duration                                 : 2 h 35 min
  35. Bit rate mode                            : Constant
  36. Bit rate                                 : 1 024 kb/s
  37. Channel(s)                               : 6 channels
  38. Channel layout                           : L R C LFE Ls Rs
  39. Sampling rate                            : 48.0 kHz
  40. Frame rate                               : 31.250 FPS (1536 SPF)
  41. Compression mode                         : Lossy
  42. Stream size                              : 1.12 GiB (7%)
  43. Language                                 : French
  44. Service kind                             : Complete Main
  45. Default                                  : Yes
  46. Forced                                   : No
  47. Text #1
  48. ID                                       : 3
  49. Format                                   : ASS
  50. Codec ID                                 : S_TEXT/ASS
  51. Codec ID/Info                            : Advanced Sub Station Alpha
  52. Duration                                 : 2 h 31 min
  53. Bit rate                                 : 113 b/s
  54. Frame rate                               : 0.174 FPS
  55. Count of elements                        : 1578
  56. Compression mode                         : Lossless
  57. Stream size                              : 126 KiB (0%)
  58. Language                                 : Russian
  59. Default                                  : No
  60. Forced                                   : No
  61. Text #2
  62. ID                                       : 4
  63. Format                                   : UTF-8
  64. Codec ID                                 : S_TEXT/UTF8
  65. Codec ID/Info                            : UTF-8 Plain Text
  66. Duration                                 : 2 h 31 min
  67. Bit rate                                 : 82 b/s
  68. Frame rate                               : 0.174 FPS
  69. Count of elements                        : 1578
  70. Stream size                              : 91.5 KiB (0%)
  71. Language                                 : Russian
  72. Default                                  : No
  73. Forced                                   : No
  74. Text #3
  75. ID                                       : 5
  76. Format                                   : ASS
  77. Codec ID                                 : S_TEXT/ASS
  78. Codec ID/Info                            : Advanced Sub Station Alpha
  79. Duration                                 : 2 h 35 min
  80. Bit rate                                 : 70 b/s
  81. Frame rate                               : 0.171 FPS
  82. Count of elements                        : 1598
  83. Compression mode                         : Lossless
  84. Stream size                              : 80.5 KiB (0%)
  85. Language                                 : English
  86. Default                                  : No
  87. Forced                                   : No
  88. Text #4
  89. ID                                       : 6
  90. Format                                   : UTF-8
  91. Codec ID                                 : S_TEXT/UTF8
  92. Codec ID/Info                            : UTF-8 Plain Text
  93. Duration                                 : 2 h 35 min
  94. Bit rate                                 : 40 b/s
  95. Frame rate                               : 0.171 FPS
  96. Count of elements                        : 1598
  97. Stream size                              : 45.7 KiB (0%)
  98. Language                                 : English
  99. Default                                  : No
  100. Forced                                   : No
  101. Menu
  102. 00:00:00.000                             : en:01. L\'évasion
  103. 00:05:09.583                             : en:02. Le massacre invisible
  104. 00:15:27.375                             : en:03. Une nouvelle époque
  105. 00:23:26.042                             : en:04. La marque d\'un ma?tre
  106. 00:36:52.833                             : en:05. La cour de grands
  107. 00:45:45.708                             : en:06. "L\'instinct ou la troille"
  108. 00:53:54.083                             : en:07. Plein sud
  109. 01:07:29.583                             : en:08. L\'homme de la situation
  110. 01:15:27.375                             : en:09. Le casse
  111. 01:27:47.333                             : en:10. A visage découvert
  112. 01:35:32.125                             : en:11. Aux mains de la loi
  113. 01:46:21.625                             : en:12. Le chatiment de la pègre
  114. 01:56:59.625                             : en:13. Pour l\'honneur
  115. 02:10:08.667                             : en:14. En solitaire
  116. 02:23:23.500                             : en:15. La parole du mort
  117. 02:30:58.000                             : en:16. Générique de fin
复制代码











回复

使用道具 举报

懒得打字嘛,点击右侧快捷回复 【右侧内容,后台自定义】
您需要登录后才可以回帖 登录 | 立即加入

本版积分规则

Archiver|小黑屋| 蓝光电影网 |网站地图

Copyright © 2021 Comsenz Inc. Powered by 蓝光电影网

蓝光电影网

本站内容由用户自主分享和转载自互联网,转载目的在于传递更多信息,并不代表本网赞同其观点和对其真实性负责。

如有侵权、违反国家法律政策行为,请联系我们,我们会第一时间及时清除和处理!

举报反馈邮箱:4k1080.com@gmail.com

快速回复 返回顶部 返回列表