找回密码

蓝光电影网

查看: 110|回复: 0

[剧情] 女孩和蜘蛛[中文字幕].The.Girl.and.the.Spider.2021.GERMAN.1080p.BluRay.x264.DDP5.1-PTer 12.76GB

[复制链接]
蓝光币
1084
发表于 2023-1-8 00:45:29 | 显示全部楼层 |阅读模式


◎标  题 女孩和蜘蛛
◎译  名 The Girl and the Spider
◎片  名 Das Mädchen und die Spinne
◎年  代 2021
◎产  地 瑞士
◎类  别 剧情
◎语  言 德语
◎上映日期 2021-03-01(柏林电影节) / 2021-07-08(德国)
◎IMDb评分 6.1/10 (747人评价)
◎IMDb链接 https://www.imdb.com/title/tt11967484/
◎豆瓣评分 7.0/10 (1816人评价)
◎豆瓣链接 https://movie.douban.com/subject/26961214/
◎片  长 98分钟
◎导  演 拉蒙·佐尔彻 Ramon Zürcher
       西尔万·佐尔彻 Silvan Zürcher
◎编  剧 拉蒙·佐尔彻 Ramon Zürcher
       西尔万·佐尔彻 Silvan Zürcher
◎演  员 亨丽埃特·肯夫里乌斯 Henriette Confurius
       尤拉西纳·拉尔迪 Ursina Lardi
       安德烈·赫尼克 André Hennicke
       丽亚·德雷格 Lea Draeger
       莎宾·蒂莫提欧 Sabine Timoteo
       Liliane Amuat Liliane Amuat
       Dagna Litzenberger-Vinet Dagna Litzenberger-Vinet
◎简  介
  这是一首复杂的心理学颂歌,表达了在不受约束的分手焦虑中酝酿的感情,它从《柏林人的遭受》角逐中获得了菲普雷西奖和最好导演奖。                                       
                                    丽莎搬进了一套新公寓,留下了前室友玛拉和马库斯。出格是玛拉,她在与变化作斗争。当其他人都在帮手丽莎建立新家的时辰,玛拉却四周奔走,主如果碍手碍脚。有一次,她甚至开了一个鬼玩笑——而且,随着她继续困扰丽莎的生活,她对事物连结稳定的渴望变得具有传染力。                                       
                                    拉蒙和席尔万·居尔的《疏松三部曲》中关于人类团结的第二部电影是在他们获奖的童贞作《希奇的小猫》以后拍摄的,该片营建了一种被四周墙包围的幽闭恐惧感。随着大师庭成员、邻人、勤杂工和食客收支这两套公寓,一股明显的性欲和妒忌的暗流充溢着全部框架,而越来越紊乱的模棱两可的漩涡——尤金·多加(Eugen Doga)的格拉莫丰(Gramofon)华尔兹(Gramofon waltz)夸大了这一点—...
  1. Video
  2. ID                                       : 1
  3. Format                                   : AVC
  4. Format/Info                              : Advanced Video Codec
  5. Format profile                           : [email protected]
  6. Format settings                          : CABAC / 4 Ref Frames
  7. Format settings, CABAC                   : Yes
  8. Format settings, Reference frames        : 4 frames
  9. Codec ID                                 : V_MPEG4/ISO/AVC
  10. Duration                                 : 1 h 38 min
  11. Bit rate                                 : 17.5 Mb/s
  12. Width                                    : 1 792 pixels
  13. Height                                   : 1 080 pixels
  14. Display aspect ratio                     : 5:3
  15. Frame rate mode                          : Constant
  16. Frame rate                               : 24.000 FPS
  17. Color space                              : YUV
  18. Chroma subsampling                       : 4:2:0
  19. Bit depth                                : 8 bits
  20. Scan type                                : Progressive
  21. Bits/(Pixel*Frame)                       : 0.377
  22. Stream size                              : 12.1 GiB (94%)
  23. Writing library                          : x264 core 164 r3094 bfc87b7
  24. Encoding settings                        : cabac=1 / ref=4 / deblock=1:-3:-3 / analyse=0x3:0x133 / me=umh / subme=10 / psy=1 / psy_rd=1.02:0.00 / mixed_ref=1 / me_range=32 / chroma_me=1 / trellis=2 / 8x8dct=1 / cqm=0 / deadzone=21,11 / fast_pskip=0 / chroma_qp_offset=-2 / threads=18 / lookahead_threads=3 / sliced_threads=0 / nr=0 / decimate=0 / interlaced=0 / bluray_compat=0 / constrained_intra=0 / bframes=9 / b_pyramid=2 / b_adapt=2 / b_bias=0 / direct=3 / weightb=1 / open_gop=0 / weightp=2 / keyint=250 / keyint_min=24 / scenecut=40 / intra_refresh=0 / rc_lookahead=250 / rc=crf / mbtree=0 / crf=17.6 / qcomp=0.60 / qpmin=0 / qpmax=69 / qpstep=4 / vbv_maxrate=62500 / vbv_bufsize=78125 / crf_max=0.0 / nal_hrd=none / filler=0 / ip_ratio=1.30 / pb_ratio=1.20 / aq=3:0.80 / zones=137045,141731,b=0.5
  25. Default                                  : Yes
  26. Forced                                   : No
  27. Color range                              : Limited
  28. Color primaries                          : BT.709
  29. Matrix coefficients                      : BT.709
  30. Audio
  31. ID                                       : 2
  32. Format                                   : E-AC-3
  33. Format/Info                              : Enhanced AC-3
  34. Commercial name                          : Dolby Digital Plus
  35. Codec ID                                 : A_EAC3
  36. Duration                                 : 1 h 38 min
  37. Bit rate mode                            : Constant
  38. Bit rate                                 : 1 024 kb/s
  39. Channel(s)                               : 6 channels
  40. Channel layout                           : L R C LFE Ls Rs
  41. Sampling rate                            : 48.0 kHz
  42. Frame rate                               : 31.250 FPS (1536 SPF)
  43. Compression mode                         : Lossy
  44. Stream size                              : 721 MiB (6%)
  45. Title                                    : German
  46. Language                                 : German
  47. Service kind                             : Complete Main
  48. Default                                  : Yes
  49. Forced                                   : No
  50. Text #1
  51. ID                                       : 3
  52. Format                                   : UTF-8
  53. Codec ID                                 : S_TEXT/UTF8
  54. Codec ID/Info                            : UTF-8 Plain Text
  55. Duration                                 : 1 h 34 min
  56. Bit rate                                 : 32 b/s
  57. Frame rate                               : 0.156 FPS
  58. Count of elements                        : 880
  59. Stream size                              : 22.1 KiB (0%)
  60. Title                                    : English
  61. Language                                 : English
  62. Default                                  : No
  63. Forced                                   : No
  64. Text #2
  65. ID                                       : 4
  66. Format                                   : UTF-8
  67. Codec ID                                 : S_TEXT/UTF8
  68. Codec ID/Info                            : UTF-8 Plain Text
  69. Duration                                 : 1 h 34 min
  70. Bit rate                                 : 33 b/s
  71. Frame rate                               : 0.156 FPS
  72. Count of elements                        : 879
  73. Stream size                              : 22.8 KiB (0%)
  74. Title                                    : Simplified Chinese
  75. Language                                 : Chinese
  76. Default                                  : No
  77. Forced                                   : No
  78. Text #3
  79. ID                                       : 5
  80. Format                                   : UTF-8
  81. Codec ID                                 : S_TEXT/UTF8
  82. Codec ID/Info                            : UTF-8 Plain Text
  83. Duration                                 : 1 h 34 min
  84. Bit rate                                 : 33 b/s
  85. Frame rate                               : 0.156 FPS
  86. Count of elements                        : 879
  87. Stream size                              : 22.8 KiB (0%)
  88. Title                                    : Traditional Chinese
  89. Language                                 : Chinese
  90. Default                                  : Yes
  91. Forced                                   : No
  92. Menu
  93. 00:00:00.000                             : en:Chapter 1
  94. 00:10:49.708                             : en:Chapter 2
  95. 00:20:57.583                             : en:Chapter 3
  96. 00:31:17.167                             : en:Chapter 4
  97. 00:40:08.958                             : en:Chapter 5
  98. 00:50:03.625                             : en:Chapter 6
  99. 01:01:09.792                             : en:Chapter 7
  100. 01:10:54.333                             : en:Chapter 8
  101. 01:21:29.292                             : en:Chapter 9
  102. 01:35:10.208                             : en:Chapter 10
  103. 01:38:24.833                             : en:Chapter 11
复制代码











回复

使用道具 举报

懒得打字嘛,点击右侧快捷回复 【右侧内容,后台自定义】
您需要登录后才可以回帖 登录 | 立即加入

本版积分规则

Archiver|小黑屋| 蓝光电影网 |网站地图

Copyright © 2021 Comsenz Inc. Powered by 蓝光电影网

蓝光电影网

本站内容由用户自主分享和转载自互联网,转载目的在于传递更多信息,并不代表本网赞同其观点和对其真实性负责。

如有侵权、违反国家法律政策行为,请联系我们,我们会第一时间及时清除和处理!

举报反馈邮箱:[email protected]

快速回复 返回顶部 返回列表