找回密码

蓝光电影网

查看: 95|回复: 0

[恐怖] 咒怨:白老妇.Ju-On.White.Ghost.2009.1080p.BluRay.x264-ORBS 7.50GB

[复制链接]
蓝光币
1084
发表于 2023-1-8 00:45:29 | 显示全部楼层 |阅读模式


◎标  题 咒怨:白老妇
◎译  名 红色咒怨 / 咒怨:红色老妇 / The Grudge: Old Lady in White
◎片  名 呪怨 白い老女
◎年  代 2009
◎产  地 日本
◎类  别 可骇
◎语  言 日语
◎上映日期 2009-06-27(日本)
◎IMDb评分 5.9/10 (2309人评价)
◎IMDb链接 https://www.imdb.com/title/tt1422675/
◎豆瓣评分 6.0/10 (16676人评价)
◎豆瓣链接 https://movie.douban.com/subject/3727661/
◎片  长 61分钟
◎导  演 三宅隆太 Ryûta Miyake
◎编  剧 三宅隆太 Ryûta Miyake
       清水崇 Takashi Shimizu
◎演  员 南明奈 Akina Minami
       铃木裕树 Hiroki Suzuki
       中村爱美 Aimi Nakamura
       福永真梨佳 Marika Fukunaga
       铃木卓尔 Takuji Suzuki
       朝美穗香 Mihiro
       宫川一朗太 Ichirôta Miyakawa
       星野晶子 Akiko Hoshino
       一濑盛大 Takashige Ichise
       清水崇 Takashi Shimizu
       芦屋加里 Gary Ashiya
       深泽佳史 Yoshifumi Fukazawa
       津村和幸 Tsumura Kazuyuki
◎简  介
  矶部一家六口人搬到新的屋子,自搬入之日起,矶部家次子笃平的性情便起头发生改变。随着又一次司法考试的失利,笃平在圣诞前夜将母亲、兄长、嫂子以及两个侄女残暴杀戮,随后带着小侄女未来的头颅来到深山野岭,上吊自杀。死前留下了录有怪僻留言的录音带。                                    
                                凶案发生第二天,快递员田宫(铃木裕树 饰)送货至矶部家,在一系列诡异事务后,他发现了凶案现场,却今后被拿着篮球的红色老女的怨灵所纠缠;由于怨灵作怪,未来的小学同学小茜也在凶案越日落空了父亲(宫川一朗太 饰)。这起灭门惨案至此告一段落,但在七年以后,已经上了高中的小茜(南明奈 饰)再次被带回昔日的噩梦当中……                                    
                                本片为日本可骇片《咒怨》系列的十周年数念作品第一部,另一部名为《黑少女》。
  1. Video
  2. ID                                       : 1
  3. Format                                   : AVC
  4. Format/Info                              : Advanced Video Codec
  5. Format profile                           : [email protected]
  6. Format settings                          : CABAC / 4 Ref Frames
  7. Format settings, CABAC                   : Yes
  8. Format settings, Reference frames        : 4 frames
  9. Codec ID                                 : V_MPEG4/ISO/AVC
  10. Duration                                 : 1 h 0 min
  11. Bit rate                                 : 16.5 Mb/s
  12. Width                                    : 1 914 pixels
  13. Height                                   : 1 074 pixels
  14. Display aspect ratio                     : 16:9
  15. Frame rate mode                          : Constant
  16. Frame rate                               : 23.976 (24000/1001) FPS
  17. Color space                              : YUV
  18. Chroma subsampling                       : 4:2:0
  19. Bit depth                                : 8 bits
  20. Scan type                                : Progressive
  21. Bits/(Pixel*Frame)                       : 0.336
  22. Stream size                              : 7.01 GiB (93%)
  23. Writing library                          : x264 core 164 r3102 416e3eb
  24. Encoding settings                        : cabac=1 / ref=4 / deblock=1:-3:-3 / analyse=0x3:0x133 / me=umh / subme=10 / psy=1 / psy_rd=1.20:0.00 / mixed_ref=1 / me_range=24 / chroma_me=1 / trellis=2 / 8x8dct=1 / cqm=0 / deadzone=21,11 / fast_pskip=0 / chroma_qp_offset=-2 / threads=24 / lookahead_threads=4 / sliced_threads=0 / nr=0 / decimate=0 / interlaced=0 / bluray_compat=0 / constrained_intra=0 / bframes=8 / b_pyramid=2 / b_adapt=2 / b_bias=0 / direct=3 / weightb=1 / open_gop=0 / weightp=2 / keyint=250 / keyint_min=23 / scenecut=40 / intra_refresh=0 / rc_lookahead=60 / rc=crf / mbtree=1 / crf=17.0 / qcomp=0.60 / qpmin=0 / qpmax=69 / qpstep=4 / ip_ratio=1.40 / aq=3:0.90
  25. Default                                  : Yes
  26. Forced                                   : No
  27. Color range                              : Limited
  28. Matrix coefficients                      : BT.709
  29. Audio
  30. ID                                       : 2
  31. Format                                   : FLAC
  32. Format/Info                              : Free Lossless Audio Codec
  33. Codec ID                                 : A_FLAC
  34. Duration                                 : 1 h 0 min
  35. Bit rate mode                            : Variable
  36. Bit rate                                 : 1 151 kb/s
  37. Channel(s)                               : 2 channels
  38. Channel layout                           : L R
  39. Sampling rate                            : 48.0 kHz
  40. Frame rate                               : 11.719 FPS (4096 SPF)
  41. Bit depth                                : 24 bits
  42. Compression mode                         : Lossless
  43. Stream size                              : 500 MiB (7%)
  44. Writing library                          : libFLAC 1.3.3 (UTC 2019-08-04)
  45. Language                                 : Japanese
  46. Default                                  : Yes
  47. Forced                                   : No
  48. Text #1
  49. ID                                       : 3
  50. Format                                   : UTF-8
  51. Codec ID                                 : S_TEXT/UTF8
  52. Codec ID/Info                            : UTF-8 Plain Text
  53. Duration                                 : 1 h 0 min
  54. Bit rate                                 : 20 b/s
  55. Count of elements                        : 372
  56. Stream size                              : 9.01 KiB (0%)
  57. Title                                    : English (Forced)
  58. Language                                 : English
  59. Default                                  : Yes
  60. Forced                                   : Yes
  61. Text #2
  62. ID                                       : 4
  63. Format                                   : PGS
  64. Muxing mode                              : zlib
  65. Codec ID                                 : S_HDMV/PGS
  66. Codec ID/Info                            : Picture based subtitle format used on BDs/HD-DVDs
  67. Duration                                 : 1 h 0 min
  68. Bit rate                                 : 12.7 kb/s
  69. Count of elements                        : 744
  70. Stream size                              : 5.44 MiB (0%)
  71. Language                                 : English
  72. Default                                  : No
  73. Forced                                   : No
  74. Menu
  75. 00:00:00.000                             : Chapter 01
  76. 00:04:22.762                             : Chapter 02
  77. 00:09:47.337                             : Chapter 03
  78. 00:13:31.853                             : Chapter 04
  79. 00:19:30.002                             : Chapter 05
  80. 00:24:58.789                             : Chapter 06
  81. 00:31:34.726                             : Chapter 07
  82. 00:36:08.291                             : Chapter 08
  83. 00:39:04.676                             : Chapter 09
  84. 00:45:01.115                             : Chapter 10
  85. 00:53:00.928                             : Chapter 11
  86. 00:55:26.532                             : Chapter 12
复制代码









回复

使用道具 举报

懒得打字嘛,点击右侧快捷回复 【右侧内容,后台自定义】
您需要登录后才可以回帖 登录 | 立即加入

本版积分规则

Archiver|小黑屋| 蓝光电影网 |网站地图

Copyright © 2021 Comsenz Inc. Powered by 蓝光电影网

蓝光电影网

本站内容由用户自主分享和转载自互联网,转载目的在于传递更多信息,并不代表本网赞同其观点和对其真实性负责。

如有侵权、违反国家法律政策行为,请联系我们,我们会第一时间及时清除和处理!

举报反馈邮箱:[email protected]

快速回复 返回顶部 返回列表