找回密码

蓝光电影网

查看: 23|回复: 0

[2160p] 骑劫地下铁.The.Taking.of.Pelham.One.Two.Three.1974.2160p.UHD.BluRay.x265.10bit.HDR.DTS-HD.MA.5.1-RARBG 8.78GB

[复制链接]
蓝光币
1080
发表于 2023-1-8 00:45:38 | 显示全部楼层 |阅读模式


◎标  题 骑劫地下铁
◎片  名 The Taking of Pelham One Two Three
◎年  代 1974
◎产  地 美国
◎类  别 行动 / 惊悚 / 犯罪
◎语  言 英语 / 西班牙语
◎上映日期 1974-10-02
◎IMDb评分 7.6/10 (31653人评价)
◎IMDb链接 https://www.imdb.com/title/tt0072251/
◎豆瓣评分 7.5/10 (962人评价)
◎豆瓣链接 https://movie.douban.com/subject/1293385/
◎片  长 104分钟
◎导  演 约瑟夫·萨金特 Joseph Sargent
◎编  剧 约翰·戈迪 John Godey
       皮特·斯通 Peter Stone
◎演  员 沃尔特·马修 Walter Matthau
       罗伯特·肖 Robert Shaw
       马丁·鲍尔萨姆 Martin Balsam
       埃克托尔·埃利松多 Hector Elizondo
       厄尔·欣德曼 Earl Hindman
       詹姆斯·布罗德里克 James Broderick
       迪克·奥尼尔 Dick O'Neill
       李·华莱士 Lee Wallace
       汤姆·佩迪 Tom Pedi
       比阿特丽斯·温德 Beatrice Winde
       杰瑞·斯蒂勒 Jerry Stiller
       内森·乔治 Nathan George
       鲁迪·邦德 Rudy Bond
       肯尼思·麦克米伦 Kenneth McMillan
       多莉丝·罗伯茨 Doris Roberts
       尤利乌斯•哈里斯 Julius Harris
       辛西娅·贝尔格雷夫 Cynthia Belgrave
       卡罗尔·科尔 Carol Cole
       亚历克斯·科伦 Alex Colon
       乔·菲尔兹 Joe Fields
       马里·戈尔曼 Mari Gorman
       迈克尔·戈林 Michael Gorrin
       露西·萨罗扬 Lucy Saroyan
       罗伯特·威尔 Robert Weil
       克里斯托弗·莫尼 Christopher Murney
       蒂莫西·迈耶斯 Timothy Meyers
       露丝·阿塔韦 Ruth Attaway
       托马斯巴伯 Thomas Barbour
       尼尔·布鲁克斯·坎宁安 Neil Brooks Cunningham
       萨尔·维斯库索 Sal Viscuso
       伯特·哈里斯 Burtt Harris
       吉恩·格罗斯 Gene Gross
       约瑟夫·阿特尔斯 Joseph Attles
       伊莎贝拉·霍普斯 Isabella Hoopes
       比尔·考布斯 Bill Cobbs
       乔·塞内卡 Joe Seneca
       托尼·罗伯茨 Tony Roberts
       亨泽尔 Hy Anzell
       伊内斯·海伦德尔 Ines Hellendall
       让·保罗·海伦德尔 Jean-Paul Hellendall
       凯里·洛夫廷 Carey Loftin
       查尔斯·西尔文 Charles Silvern
       多尔夫·斯威特 Dolph Sweet
       弗兰克·文特根 Frank Ventgen
◎简  介
  以罗伯特·肖为首的四名暴徒洗劫纽约市的地下铁,劫持十八个乘客作人质,威胁市政府在一小时内交一百万美圆赎金,否则起头杀戮人质。沃尔特·马修饰演的警长一边代表市府与暴徒周旋,另一边又跟地铁公司的职员怒目向相,使危机随着时候曩昔而升高。不意在四个暴徒得手以后,警长竟凭巧计看破了其中一位劫匪的身份。
  1. Video
  2. ID                                       : 1
  3. Format                                   : HEVC
  4. Format/Info                              : High Efficiency Video Coding
  5. Format profile                           : Main [email protected]@Main
  6. HDR format                               : SMPTE ST 2086, HDR10 compatible
  7. Codec ID                                 : V_MPEGH/ISO/HEVC
  8. Duration                                 : 1 h 44 min
  9. Bit rate                                 : 8 019 kb/s
  10. Width                                    : 3 840 pixels
  11. Height                                   : 1 604 pixels
  12. Display aspect ratio                     : 2.40:1
  13. Frame rate mode                          : Constant
  14. Frame rate                               : 24.000 FPS
  15. Color space                              : YUV
  16. Chroma subsampling                       : 4:2:0
  17. Bit depth                                : 10 bits
  18. Bits/(Pixel*Frame)                       : 0.054
  19. Stream size                              : 5.85 GiB (67%)
  20. Writing library                          : x265 3.5+rarbg-HDR-38-20255e6:[Linux][clang 16.0.0][64 bit] 10bit
  21. Encoding settings                        : cpuid=1111039 / frame-threads=6 / wpp / no-pmode / no-pme / no-psnr / no-ssim / log-level=2 / input-csp=1 / input-res=3840x1604 / interlace=0 / total-frames=0 / level-idc=51 / high-tier=1 / uhd-bd=0 / ref=4 / no-allow-non-conformance / repeat-headers / annexb / aud / no-eob / no-eos / no-hrd / info / hash=0 / no-temporal-layers / no-open-gop / min-keyint=1 / keyint=24 / gop-lookahead=0 / bframes=4 / b-adapt=2 / b-pyramid / bframe-bias=0 / rc-lookahead=25 / lookahead-slices=4 / scenecut=40 / no-hist-scenecut / radl=0 / no-splice / no-intra-refresh / ctu=64 / min-cu-size=8 / rect / no-amp / max-tu-size=32 / tu-inter-depth=1 / tu-intra-depth=1 / limit-tu=0 / rdoq-level=2 / dynamic-rd=0.00 / no-ssim-rd / signhide / no-tskip / nr-intra=0 / nr-inter=0 / no-constrained-intra / strong-intra-smoothing / max-merge=3 / limit-refs=3 / no-limit-modes / me=3 / subme=3 / merange=57 / temporal-mvp / no-frame-dup / no-hme / weightp / no-weightb / no-analyze-src-pics / deblock=0:0 / no-sao / no-sao-non-deblock / rd=4 / selective-sao=0 / no-early-skip / rskip / no-fast-intra / no-tskip-fast / no-cu-lossless / no-b-intra / no-splitrd-skip / rdpenalty=0 / psy-rd=2.00 / psy-rdoq=1.00 / no-rd-refine / no-lossless / cbqpoffs=0 / crqpoffs=0 / rc=abr / bitrate=8000 / qcomp=0.60 / qpstep=4 / stats-write=0 / stats-read=2 / cplxblur=20.0 / qblur=0.5 / ipratio=1.40 / pbratio=1.30 / aq-mode=1 / aq-strength=1.00 / cutree / zone-count=0 / no-strict-cbr / qg-size=32 / no-rc-grain / qpmax=69 / qpmin=0 / no-const-vbv / sar=1 / overscan=0 / videoformat=5 / range=0 / colorprim=9 / transfer=16 / colormatrix=9 / chromaloc=0 / display-window=0 / master-display=G(13250,34500)B(7500,3000)R(34000,16000)WP(15635,16450)L(10000000,1) / cll=829,60 / min-luma=0 / max-luma=1023 / log2-max-poc-lsb=8 / vui-timing-info / vui-hrd-info / slices=1 / no-opt-qp-pps / no-opt-ref-list-length-pps / no-multi-pass-opt-rps / scenecut-bias=0.05 / hist-threshold=0.03 / no-opt-cu-delta-qp / no-aq-motion / hdr10 / hdr10-opt / no-dhdr10-opt / no-idr-recovery-sei / analysis-reuse-level=0 / analysis-save-reuse-level=0 / analysis-load-reuse-level=0 / scale-factor=0 / refine-intra=0 / refine-inter=0 / refine-mv=1 / refine-ctu-distortion=0 / no-limit-sao / ctu-info=0 / no-lowpass-dct / refine-analysis-type=0 / copy-pic=1 / max-ausize-factor=1.0 / no-dynamic-refine / no-single-sei / no-hevc-aq / no-svt / no-field / qp-adaptation-range=1.00 / scenecut-aware-qp=0conformance-window-offsets / right=0 / bottom=0 / decoder-max-rate=0 / no-vbv-live-multi-pass
  22. Default                                  : Yes
  23. Forced                                   : No
  24. Color range                              : Limited
  25. Color primaries                          : BT.2020
  26. Transfer characteristics                 : PQ
  27. Matrix coefficients                      : BT.2020 non-constant
  28. Mastering display color primaries        : Display P3
  29. Mastering display luminance              : min: 0.0001 cd/m2, max: 1000 cd/m2
  30. Maximum Content Light Level              : 829 cd/m2
  31. Maximum Frame-Average Light Level        : 60 cd/m2
  32. Audio #1
  33. ID                                       : 2
  34. Format                                   : DTS XLL
  35. Format/Info                              : Digital Theater Systems
  36. Commercial name                          : DTS-HD Master Audio
  37. Codec ID                                 : A_DTS
  38. Duration                                 : 1 h 44 min
  39. Bit rate mode                            : Variable
  40. Bit rate                                 : 3 636 kb/s
  41. Channel(s)                               : 6 channels
  42. Channel layout                           : C L R Ls Rs LFE
  43. Sampling rate                            : 48.0 kHz
  44. Frame rate                               : 93.750 FPS (512 SPF)
  45. Bit depth                                : 24 bits
  46. Compression mode                         : Lossless
  47. Stream size                              : 2.65 GiB (30%)
  48. Title                                    : English DTS-HD MA 5.1
  49. Language                                 : English
  50. Default                                  : Yes
  51. Forced                                   : No
  52. Audio #2
  53. ID                                       : 3
  54. Format                                   : AC-3
  55. Format/Info                              : Audio Coding 3
  56. Commercial name                          : Dolby Digital
  57. Codec ID                                 : A_AC3
  58. Duration                                 : 1 h 44 min
  59. Bit rate mode                            : Constant
  60. Bit rate                                 : 384 kb/s
  61. Channel(s)                               : 6 channels
  62. Channel layout                           : L R C LFE Ls Rs
  63. Sampling rate                            : 48.0 kHz
  64. Frame rate                               : 31.250 FPS (1536 SPF)
  65. Compression mode                         : Lossy
  66. Stream size                              : 287 MiB (3%)
  67. Title                                    : English DD 5.1
  68. Language                                 : English
  69. Service kind                             : Complete Main
  70. Default                                  : No
  71. Forced                                   : No
  72. Text #1
  73. ID                                       : 4
  74. Format                                   : UTF-8
  75. Codec ID                                 : S_TEXT/UTF8
  76. Codec ID/Info                            : UTF-8 Plain Text
  77. Duration                                 : 1 h 41 min
  78. Bit rate                                 : 83 b/s
  79. Frame rate                               : 0.316 FPS
  80. Count of elements                        : 1921
  81. Stream size                              : 62.0 KiB (0%)
  82. Title                                    : English SRT
  83. Language                                 : English
  84. Default                                  : Yes
  85. Forced                                   : No
  86. Text #2
  87. ID                                       : 5
  88. Format                                   : UTF-8
  89. Codec ID                                 : S_TEXT/UTF8
  90. Codec ID/Info                            : UTF-8 Plain Text
  91. Duration                                 : 1 h 41 min
  92. Bit rate                                 : 91 b/s
  93. Frame rate                               : 0.354 FPS
  94. Count of elements                        : 2155
  95. Stream size                              : 68.1 KiB (0%)
  96. Title                                    : English SDH SRT
  97. Language                                 : English
  98. Default                                  : No
  99. Forced                                   : No
  100. Menu
  101. 00:00:00.000                             : en:Chapter 01
  102. 00:09:33.083                             : en:Chapter 02
  103. 00:20:03.083                             : en:Chapter 03
  104. 00:31:25.541                             : en:Chapter 04
  105. 00:41:17.208                             : en:Chapter 05
  106. 00:51:13.708                             : en:Chapter 06
  107. 01:00:46.958                             : en:Chapter 07
  108. 01:10:20.291                             : en:Chapter 08
  109. 01:19:30.166                             : en:Chapter 09
  110. 01:30:01.625                             : en:Chapter 10
复制代码











回复

使用道具 举报

懒得打字嘛,点击右侧快捷回复 【右侧内容,后台自定义】
您需要登录后才可以回帖 登录 | 立即加入

本版积分规则

Archiver|小黑屋| 蓝光电影网 |网站地图

Copyright © 2021 Comsenz Inc. Powered by 蓝光电影网

蓝光电影网

本站内容由用户自主分享和转载自互联网,转载目的在于传递更多信息,并不代表本网赞同其观点和对其真实性负责。

如有侵权、违反国家法律政策行为,请联系我们,我们会第一时间及时清除和处理!

举报反馈邮箱:[email protected]

快速回复 返回顶部 返回列表