找回密码

蓝光电影网

查看: 30|回复: 0

[悬疑] 灰天鹅绒上的四只苍蝇.Four.Flies.On.Grey.Velvet.1971.THEATRICAL.720p.BluRay.x264-WATCHABLE 8.12GB

[复制链接]
蓝光币
1084
发表于 2023-1-8 00:45:39 | 显示全部楼层 |阅读模式


◎标  题 灰天鹅绒上的四只苍蝇
◎译  名 Four Flies on Grey Velvet
◎片  名 4 mosche di velluto grigio
◎年  代 1971
◎产  地 意大利 / 法国
◎类  别 悬疑 / 惊悚 / 可骇
◎语  言 意大利语
◎上映日期 1971-12-17
◎IMDb评分 6.6/10 (8880人评价)
◎IMDb链接 https://www.imdb.com/title/tt0066735/
◎豆瓣评分 6.6/10 (422人评价)
◎豆瓣链接 https://movie.douban.com/subject/1849128/
◎片  长 104 分钟
◎导  演 达里奥·阿基多 Dario Argento
◎编  剧 达里奥·阿基多 Dario Argento
       路易吉·科齐 Luigi Cozzi
◎演  员 迈克尔·布兰登 Michael Brandon
       梅茜·珐玛 Mimsy Farmer
       让-皮埃尔·马里埃尔 Jean-Pierre Marielle
       弗朗辛·拉塞特 Francine Racette
       劳拉·德罗塞勒 Laura Troschel
       Marisa Fabbri Marisa Fabbri
       斯特凡诺·萨塔·弗洛雷斯 Stefano Satta Flores
       斯特法诺·奥佩迪萨诺 Stefano Oppedisano
       Diego Morreale Diego Morreale
       Fabrizio Moroni Fabrizio Moroni
       Corrado Olmi Corrado Olmi
       伦佐·马里尼亚诺 Renzo Marignano
       奥莱斯特·莱内罗 Oreste Lionello
       布德·斯藩塞 Bud Spencer
       路易吉·科齐 Luigi Cozzi
       Calisto Calisti Calisto Calisti
       Guerrino Crivello Guerrino Crivello
       桑德罗·铎尼 Sandro Dori
       阿尔多·巴菲·兰迪 Aldo Bufi Landi
       恩尼奥·莫里康内 Ennio Morricone
       Franco Di Giacomo Franco Di Giacomo
       弗朗西斯·波诺娃 Françoise Bonnot
       恩里科·萨巴蒂尼 Enrico Sabbatini
◎简  介
  Roberto, a drummer in a rock band, keeps receiving weird phone calls and being followed by a mysterious man. One night he manages to catch up with his persecutor and tries to get him to talk but in the ensuing struggle he accidentally stabs him. He runs away, but he understands his troubles have just begun when the following day he receives an envelope with photos of him killin...
  1. Video
  2. ID                                       : 1
  3. Format                                   : AVC
  4. Format/Info                              : Advanced Video Codec
  5. Format profile                           : [email protected]
  6. Format settings                          : CABAC / 8 Ref Frames
  7. Format settings, CABAC                   : Yes
  8. Format settings, Reference frames        : 8 frames
  9. Codec ID                                 : V_MPEG4/ISO/AVC
  10. Duration                                 : 1 h 41 min
  11. Bit rate                                 : 10.2 Mb/s
  12. Width                                    : 1 280 pixels
  13. Height                                   : 534 pixels
  14. Display aspect ratio                     : 2.40:1
  15. Frame rate mode                          : Constant
  16. Frame rate                               : 23.976 (24000/1001) FPS
  17. Color space                              : YUV
  18. Chroma subsampling                       : 4:2:0
  19. Bit depth                                : 8 bits
  20. Scan type                                : Progressive
  21. Bits/(Pixel*Frame)                       : 0.619
  22. Stream size                              : 7.19 GiB (89%)
  23. Writing library                          : x264 core 164 r3103 941cae6
  24. Encoding settings                        : cabac=1 / ref=8 / deblock=1:-3:-3 / analyse=0x3:0x133 / me=umh / subme=9 / psy=1 / psy_rd=1.00:0.00 / mixed_ref=1 / me_range=16 / chroma_me=1 / trellis=2 / 8x8dct=1 / cqm=0 / deadzone=21,11 / fast_pskip=0 / chroma_qp_offset=-2 / threads=17 / lookahead_threads=1 / sliced_threads=0 / nr=0 / decimate=0 / interlaced=0 / bluray_compat=0 / constrained_intra=0 / bframes=3 / b_pyramid=2 / b_adapt=2 / b_bias=0 / direct=1 / weightb=1 / open_gop=0 / weightp=2 / keyint=250 / keyint_min=23 / scenecut=40 / intra_refresh=0 / rc=crf / mbtree=0 / crf=17.7 / qcomp=0.60 / qpmin=0 / qpmax=69 / qpstep=4 / ip_ratio=1.40 / pb_ratio=1.30 / aq=3:0.70
  25. Default                                  : Yes
  26. Forced                                   : No
  27. Color range                              : Limited
  28. Color primaries                          : BT.709
  29. Transfer characteristics                 : BT.709
  30. Matrix coefficients                      : BT.709
  31. Audio #1
  32. ID                                       : 2
  33. Format                                   : FLAC
  34. Format/Info                              : Free Lossless Audio Codec
  35. Codec ID                                 : A_FLAC
  36. Duration                                 : 1 h 41 min
  37. Bit rate mode                            : Variable
  38. Bit rate                                 : 630 kb/s
  39. Channel(s)                               : 2 channels
  40. Channel layout                           : L R
  41. Sampling rate                            : 48.0 kHz
  42. Frame rate                               : 10.417 FPS (4608 SPF)
  43. Bit depth                                : 24 bits
  44. Compression mode                         : Lossless
  45. Stream size                              : 457 MiB (5%)
  46. Title                                    : Italian
  47. Writing library                          : Lavf59.20.101
  48. Language                                 : Italian
  49. Default                                  : Yes
  50. Forced                                   : No
  51. MD5 of the unencoded content             : 62E6CEE7290145C1DE39C7505FE58E75
  52. Audio #2
  53. ID                                       : 3
  54. Format                                   : FLAC
  55. Format/Info                              : Free Lossless Audio Codec
  56. Codec ID                                 : A_FLAC
  57. Duration                                 : 1 h 41 min
  58. Bit rate mode                            : Variable
  59. Bit rate                                 : 667 kb/s
  60. Channel(s)                               : 2 channels
  61. Channel layout                           : L R
  62. Sampling rate                            : 48.0 kHz
  63. Frame rate                               : 10.417 FPS (4608 SPF)
  64. Bit depth                                : 24 bits
  65. Compression mode                         : Lossless
  66. Stream size                              : 483 MiB (6%)
  67. Title                                    : English
  68. Writing library                          : Lavf59.20.101
  69. Language                                 : English
  70. Default                                  : No
  71. Forced                                   : No
  72. MD5 of the unencoded content             : 47528F1FF343DDA803434ACD2E066DB4
  73. Text #1
  74. ID                                       : 4
  75. Format                                   : UTF-8
  76. Codec ID                                 : S_TEXT/UTF8
  77. Codec ID/Info                            : UTF-8 Plain Text
  78. Duration                                 : 1 h 40 min
  79. Bit rate                                 : 37 b/s
  80. Frame rate                               : 0.191 FPS
  81. Count of elements                        : 1157
  82. Stream size                              : 27.6 KiB (0%)
  83. Title                                    : English SDH SRT
  84. Language                                 : English
  85. Default                                  : Yes
  86. Forced                                   : Yes
  87. Text #2
  88. ID                                       : 5
  89. Format                                   : UTF-8
  90. Codec ID                                 : S_TEXT/UTF8
  91. Codec ID/Info                            : UTF-8 Plain Text
  92. Duration                                 : 1 h 37 min
  93. Bit rate                                 : 36 b/s
  94. Frame rate                               : 0.117 FPS
  95. Count of elements                        : 685
  96. Stream size                              : 25.8 KiB (0%)
  97. Title                                    : English for Italian SRT
  98. Language                                 : English
  99. Default                                  : No
  100. Forced                                   : No
  101. Text #3
  102. ID                                       : 6
  103. Format                                   : UTF-8
  104. Codec ID                                 : S_TEXT/UTF8
  105. Codec ID/Info                            : UTF-8 Plain Text
  106. Duration                                 : 1 h 31 min
  107. Bit rate                                 : 0 b/s
  108. Frame rate                               : 0.002 FPS
  109. Count of elements                        : 12
  110. Stream size                              : 486 Bytes (0%)
  111. Title                                    : English Forced SRT
  112. Language                                 : English
  113. Default                                  : No
  114. Forced                                   : No
  115. Text #4
  116. ID                                       : 7
  117. Format                                   : PGS
  118. Muxing mode                              : zlib
  119. Codec ID                                 : S_HDMV/PGS
  120. Codec ID/Info                            : Picture based subtitle format used on BDs/HD-DVDs
  121. Duration                                 : 1 h 40 min
  122. Bit rate                                 : 24.3 kb/s
  123. Frame rate                               : 0.290 FPS
  124. Count of elements                        : 1757
  125. Stream size                              : 17.5 MiB (0%)
  126. Title                                    : English SDH PGS
  127. Language                                 : English
  128. Default                                  : No
  129. Forced                                   : No
  130. Text #5
  131. ID                                       : 8
  132. Format                                   : PGS
  133. Muxing mode                              : zlib
  134. Codec ID                                 : S_HDMV/PGS
  135. Codec ID/Info                            : Picture based subtitle format used on BDs/HD-DVDs
  136. Duration                                 : 1 h 37 min
  137. Bit rate                                 : 22.1 kb/s
  138. Frame rate                               : 0.236 FPS
  139. Count of elements                        : 1377
  140. Stream size                              : 15.4 MiB (0%)
  141. Title                                    : English for Italian PGS
  142. Language                                 : English
  143. Default                                  : No
  144. Forced                                   : No
  145. Text #6
  146. ID                                       : 9
  147. Format                                   : PGS
  148. Muxing mode                              : zlib
  149. Codec ID                                 : S_HDMV/PGS
  150. Codec ID/Info                            : Picture based subtitle format used on BDs/HD-DVDs
  151. Duration                                 : 1 h 31 min
  152. Bit rate                                 : 559 b/s
  153. Frame rate                               : 0.008 FPS
  154. Count of elements                        : 42
  155. Stream size                              : 374 KiB (0%)
  156. Title                                    : English Forced PGS
  157. Language                                 : English
  158. Default                                  : No
  159. Forced                                   : No
  160. Menu
  161. 00:00:00.000                             : en:Chapter 01
  162. 00:07:13.975                             : en:Chapter 02
  163. 00:21:41.842                             : en:Chapter 03
  164. 00:29:39.403                             : en:Chapter 04
  165. 00:41:29.570                             : en:Chapter 05
  166. 00:52:23.932                             : en:Chapter 06
  167. 00:59:25.145                             : en:Chapter 07
  168. 01:09:31.918                             : en:Chapter 08
  169. 01:14:40.935                             : en:Chapter 09
  170. 01:22:33.031                             : en:Chapter 10
  171. 01:27:42.299                             : en:Chapter 11
  172. 01:38:04.253                             : en:Chapter 12
复制代码











回复

使用道具 举报

懒得打字嘛,点击右侧快捷回复 【右侧内容,后台自定义】
您需要登录后才可以回帖 登录 | 立即加入

本版积分规则

Archiver|小黑屋| 蓝光电影网 |网站地图

Copyright © 2021 Comsenz Inc. Powered by 蓝光电影网

蓝光电影网

本站内容由用户自主分享和转载自互联网,转载目的在于传递更多信息,并不代表本网赞同其观点和对其真实性负责。

如有侵权、违反国家法律政策行为,请联系我们,我们会第一时间及时清除和处理!

举报反馈邮箱:[email protected]

快速回复 返回顶部 返回列表