找回密码

蓝光电影网

查看: 23|回复: 0

[2160p] 我最好朋友的婚礼.My.Best.Friends.Wedding.1997.2160p.UHD.BluRay.x265.10bit.HDR.DDP5.1-RARBG 6.35GB

[复制链接]
蓝光币
1080
发表于 2023-1-8 00:45:40 | 显示全部楼层 |阅读模式


◎标  题 我最好朋友的婚礼
◎译  名 真的想嫁你(港) / 新娘不是我(台) / Boda de mi mejor amigo /  La
◎片  名 My Best Friend's Wedding
◎年  代 1997
◎产  地 美国
◎类  别 笑剧 / 恋爱
◎语  言 英语 / 法语 / 意大利语
◎上映日期 1997-06-20(美国)
◎IMDb评分 6.3/10 (144773人评价)
◎IMDb链接 https://www.imdb.com/title/tt0119738/
◎豆瓣评分 7.3/10 (87961人评价)
◎豆瓣链接 https://movie.douban.com/subject/1295965/
◎片  长 105分钟
◎导  演 P·J·霍根 P.J. Hogan
◎编  剧 罗纳德·巴斯 Ronald Bass
◎演  员 朱莉娅·罗伯茨 Julia Roberts
       德蒙特·莫罗尼 Dermot Mulroney
       卡梅隆·迪亚兹 Cameron Diaz
       鲁伯特·艾弗雷特 Rupert Everett
       菲利普·博斯科 Philip Bosco
       M·埃梅特·沃尔什 M. Emmet Walsh
       瑞切尔·格里菲斯 Rachel Griffiths
       卡丽·普雷斯顿 Carrie Preston
       苏珊·沙利文 Susan Sullivan
       克里斯托弗·马斯特森 Christopher Masterson
       布丽·特纳 Bree Turner
       草刈正雄 Masao Kusakari
       吉恩·詹森 Gene Janson
       哈里·谢尔 Harry Shearer
       迈克·巴卡雷纳 Mike Bacarella
       保罗·吉亚玛提 Paul Giamatti
       玛丽-帕特·格林 Mary-Pat Green
       户田惠子 Keiko Toda
       吉尔·内特 Gil Netter
       詹姆斯·纽顿·霍华德 James Newton Howard
       Garth Craven Garth Craven
       丽莎·弗拉特曼 Lisa Fruchtman
       大卫·鲁宾 David Rubin
       Karen Fletcher Trujillo Karen Fletcher Trujillo
       杰弗里·库兰 Jeffrey Kurland
       琳达·梅拉佐 Linda Melazzo
       安妮·摩根 Anne Morgan
       林戴尔·奎尤 Lyndell Quiyou
       渡边纪子 Noriko Watanabe
◎简  介
  朱莉安(朱莉娅•罗伯茨 Julia Roberts 饰)和迈克尔(德蒙特•莫罗尼 Dermot Mulroney饰)是大学时辰的情侣。和大大都的情人一样,他们的热恋渐渐降温,直到沦为好朋友。因而结业前有了这样一个约定:假如28岁之前,相互还是单身,那末就明证了他俩是天造地设的一对,到时辰两人就成婚。                                    
                                结业后二人一向通电,朱莉安以为只是友谊。但是迈克尔的婚讯却让她恍然大悟——自己一向都还深爱迈克尔,此时激烈的妒嫉和悲伤让她寝食难安。                                    
                                朱莉安决议要改变这一切。她一手设想了一个个使人啼笑皆非的“诡计”,让迈克尔未婚妻当众出丑,离间他们的豪情。当发现迈克尔对未婚妻的爱居然占了上风时,朱莉何在婚礼上做出了疯狂行为,这一招果然气走了新娘。但是工作又有了变化。
  1. Video
  2. ID                                       : 1
  3. Format                                   : HEVC
  4. Format/Info                              : High Efficiency Video Coding
  5. Format profile                           : Main [email protected]@Main
  6. HDR format                               : SMPTE ST 2086, HDR10 compatible
  7. Codec ID                                 : V_MPEGH/ISO/HEVC
  8. Duration                                 : 1 h 44 min
  9. Bit rate                                 : 8 019 kb/s
  10. Width                                    : 3 840 pixels
  11. Height                                   : 1 604 pixels
  12. Display aspect ratio                     : 2.40:1
  13. Frame rate mode                          : Constant
  14. Frame rate                               : 23.976 (24000/1001) FPS
  15. Color space                              : YUV
  16. Chroma subsampling                       : 4:2:0
  17. Bit depth                                : 10 bits
  18. Bits/(Pixel*Frame)                       : 0.054
  19. Stream size                              : 5.87 GiB (93%)
  20. Writing library                          : x265 3.5+rarbg-HDR-38-20255e6:[Linux][clang 16.0.0][64 bit] 10bit
  21. Encoding settings                        : cpuid=1111039 / frame-threads=6 / wpp / no-pmode / no-pme / no-psnr / no-ssim / log-level=2 / input-csp=1 / input-res=3840x1604 / interlace=0 / total-frames=0 / level-idc=51 / high-tier=1 / uhd-bd=0 / ref=4 / no-allow-non-conformance / repeat-headers / annexb / aud / no-eob / no-eos / no-hrd / info / hash=0 / no-temporal-layers / no-open-gop / min-keyint=1 / keyint=24 / gop-lookahead=0 / bframes=4 / b-adapt=2 / b-pyramid / bframe-bias=0 / rc-lookahead=25 / lookahead-slices=4 / scenecut=40 / no-hist-scenecut / radl=0 / no-splice / no-intra-refresh / ctu=64 / min-cu-size=8 / rect / no-amp / max-tu-size=32 / tu-inter-depth=1 / tu-intra-depth=1 / limit-tu=0 / rdoq-level=2 / dynamic-rd=0.00 / no-ssim-rd / signhide / no-tskip / nr-intra=0 / nr-inter=0 / no-constrained-intra / strong-intra-smoothing / max-merge=3 / limit-refs=3 / no-limit-modes / me=3 / subme=3 / merange=57 / temporal-mvp / no-frame-dup / no-hme / weightp / no-weightb / no-analyze-src-pics / deblock=0:0 / no-sao / no-sao-non-deblock / rd=4 / selective-sao=0 / no-early-skip / rskip / no-fast-intra / no-tskip-fast / no-cu-lossless / no-b-intra / no-splitrd-skip / rdpenalty=0 / psy-rd=2.00 / psy-rdoq=1.00 / no-rd-refine / no-lossless / cbqpoffs=0 / crqpoffs=0 / rc=abr / bitrate=8000 / qcomp=0.60 / qpstep=4 / stats-write=0 / stats-read=2 / cplxblur=20.0 / qblur=0.5 / ipratio=1.40 / pbratio=1.30 / aq-mode=1 / aq-strength=1.00 / cutree / zone-count=0 / no-strict-cbr / qg-size=32 / no-rc-grain / qpmax=69 / qpmin=0 / no-const-vbv / sar=1 / overscan=0 / videoformat=5 / range=0 / colorprim=9 / transfer=16 / colormatrix=9 / chromaloc=0 / display-window=0 / master-display=G(13250,34500)B(7500,3000)R(34000,16000)WP(15635,16450)L(10000000,1) / cll=999,159 / min-luma=0 / max-luma=1023 / log2-max-poc-lsb=8 / vui-timing-info / vui-hrd-info / slices=1 / no-opt-qp-pps / no-opt-ref-list-length-pps / no-multi-pass-opt-rps / scenecut-bias=0.05 / hist-threshold=0.03 / no-opt-cu-delta-qp / no-aq-motion / hdr10 / hdr10-opt / no-dhdr10-opt / no-idr-recovery-sei / analysis-reuse-level=0 / analysis-save-reuse-level=0 / analysis-load-reuse-level=0 / scale-factor=0 / refine-intra=0 / refine-inter=0 / refine-mv=1 / refine-ctu-distortion=0 / no-limit-sao / ctu-info=0 / no-lowpass-dct / refine-analysis-type=0 / copy-pic=1 / max-ausize-factor=1.0 / no-dynamic-refine / no-single-sei / no-hevc-aq / no-svt / no-field / qp-adaptation-range=1.00 / scenecut-aware-qp=0conformance-window-offsets / right=0 / bottom=0 / decoder-max-rate=0 / no-vbv-live-multi-pass
  22. Default                                  : Yes
  23. Forced                                   : No
  24. Color range                              : Limited
  25. Color primaries                          : BT.2020
  26. Transfer characteristics                 : PQ
  27. Matrix coefficients                      : BT.2020 non-constant
  28. Mastering display color primaries        : Display P3
  29. Mastering display luminance              : min: 0.0001 cd/m2, max: 1000 cd/m2
  30. Maximum Content Light Level              : 999 cd/m2
  31. Maximum Frame-Average Light Level        : 159 cd/m2
  32. Audio
  33. ID                                       : 2
  34. Format                                   : E-AC-3
  35. Format/Info                              : Enhanced AC-3
  36. Commercial name                          : Dolby Digital Plus
  37. Codec ID                                 : A_EAC3
  38. Duration                                 : 1 h 44 min
  39. Bit rate mode                            : Constant
  40. Bit rate                                 : 640 kb/s
  41. Channel(s)                               : 6 channels
  42. Channel layout                           : L R C LFE Ls Rs
  43. Sampling rate                            : 48.0 kHz
  44. Frame rate                               : 31.250 FPS (1536 SPF)
  45. Compression mode                         : Lossy
  46. Stream size                              : 480 MiB (7%)
  47. Title                                    : English DDP 5.1
  48. Language                                 : English
  49. Service kind                             : Complete Main
  50. Default                                  : Yes
  51. Forced                                   : No
  52. Text #1
  53. ID                                       : 3
  54. Format                                   : UTF-8
  55. Codec ID                                 : S_TEXT/UTF8
  56. Codec ID/Info                            : UTF-8 Plain Text
  57. Duration                                 : 1 h 39 min
  58. Bit rate                                 : 65 b/s
  59. Frame rate                               : 0.235 FPS
  60. Count of elements                        : 1410
  61. Stream size                              : 47.5 KiB (0%)
  62. Title                                    : English SRT
  63. Language                                 : English
  64. Default                                  : Yes
  65. Forced                                   : No
  66. Text #2
  67. ID                                       : 4
  68. Format                                   : UTF-8
  69. Codec ID                                 : S_TEXT/UTF8
  70. Codec ID/Info                            : UTF-8 Plain Text
  71. Duration                                 : 1 h 43 min
  72. Bit rate                                 : 65 b/s
  73. Frame rate                               : 0.243 FPS
  74. Count of elements                        : 1503
  75. Stream size                              : 49.5 KiB (0%)
  76. Title                                    : English SDH SRT
  77. Language                                 : English
  78. Default                                  : No
  79. Forced                                   : No
  80. Menu
  81. 00:00:00.000                             : en:Chapter 01
  82. 00:10:09.567                             : en:Chapter 02
  83. 00:20:02.367                             : en:Chapter 03
  84. 00:29:54.042                             : en:Chapter 04
  85. 00:40:20.876                             : en:Chapter 05
  86. 00:48:52.512                             : en:Chapter 06
  87. 01:00:04.142                             : en:Chapter 07
  88. 01:10:04.325                             : en:Chapter 08
  89. 01:20:05.759                             : en:Chapter 09
  90. 01:30:20.957                             : en:Chapter 10
  91. 01:40:51.253                             : en:Chapter 11
复制代码











回复

使用道具 举报

懒得打字嘛,点击右侧快捷回复 【右侧内容,后台自定义】
您需要登录后才可以回帖 登录 | 立即加入

本版积分规则

Archiver|小黑屋| 蓝光电影网 |网站地图

Copyright © 2021 Comsenz Inc. Powered by 蓝光电影网

蓝光电影网

本站内容由用户自主分享和转载自互联网,转载目的在于传递更多信息,并不代表本网赞同其观点和对其真实性负责。

如有侵权、违反国家法律政策行为,请联系我们,我们会第一时间及时清除和处理!

举报反馈邮箱:[email protected]

快速回复 返回顶部 返回列表