找回密码

蓝光电影网

查看: 1248|回复: 3

[2160p] 巫术神剑.The.Sword.and.the.Sorcerer.1982.2160p.UHD.BluRay.x265.10bit.HDR.DTS-HD.MA.5.1-RARBG 8.52GB

[复制链接]
蓝光币
1704
发表于 2023-1-8 00:45:44 | 显示全部楼层 |阅读模式


◎标  题 巫术神剑
◎片  名 The Sword and the Sorcerer
◎年  代 1982
◎产  地 美国
◎类  别 行动 / 奇异 / 冒险
◎语  言 英语
◎上映日期 1982-04-30
◎IMDb评分 5.5/10 (6084人评价)
◎IMDb链接 https://www.imdb.com/title/tt0084749/
◎豆瓣链接 https://movie.douban.com/subject/1296914/
◎片  长 100 分钟
◎导  演 阿尔伯特·派恩 Albert Pyun
◎编  剧 John V. Stuckmeyer John V. Stuckmeyer
       Tom Karnowski Tom Karnowski
       阿尔伯特·派恩 Albert Pyun
◎演  员 李·霍斯利 Lee Horsley
       凯瑟琳·贝勒 Kathleen Beller
       西蒙·麦考金戴尔 Simon MacCorkindale
       乔治·马海尔斯 George Maharis
       理查德·林奇 Richard Lynch
       Erik Cord Erik Cord
       妮娜·范·帕朗特 Nina Van Pallandt
       Alvah Stanley Alvah Stanley
       Robert Tessier Robert Tessier
       William Watson William Watson
       艾米丽·杨希 Emily Yancy
       Hubie Kerns Jr. Hubie Kerns Jr.
       科里恩·卡尔弗特 Corinne Calvet
       杰伊·鲁宾逊 Jay Robinson
       约瑟夫·拉斯金 Joseph Ruskin
       小托马斯·罗萨莱斯 Thomas Rosales Jr.
       莱伯·布朗 Reb Brown
       彼得·布瑞克 Peter Breck
       JoJo D'Amore JoJo D'Amore
       Barry Chase Barry Chase
       Christopher Cary Christopher Cary
       科里·伯顿 Corey Burton
       约翰·戴维斯·钱德勒 John Davis Chandler
       乔·雷加尔布托 Joe Regalbuto
       Alan Caillou Alan Caillou
       杰夫·科里 Jeff Corey
       Simmy Bow Simmy Bow
       Michael Evans Michael Evans
       乔治·穆德克 George Murdock
       Patrick O'Moore Patrick O'Moore
       Christina Nigra Christina Nigra
       理查德·莫尔 Richard Moll
       苏齐·曼德尔 Suzy Mandel
       Russ Marin Russ Marin
       Leonard P. Geer Leonard P. Geer
       乔治·费舍尔 George Fisher
       Anthony De Longis Anthony De Longis
       Greg Finley Greg Finley
       Tom Karnowski Tom Karnowski
       John V. Stuckmeyer John V. Stuckmeyer
       Mark L. Rosen Mark L. Rosen
       Brandon Chase Brandon Chase
       David Whitaker David Whitaker
       Joseph Mangine Joseph Mangine
       Al Onorato Al Onorato
       Jerold Franks Jerold Franks
       Christine Boyar Christine Boyar
       Pamela Peitzman Pamela Peitzman
       Anthony Esposito Anthony Esposito
       Francisco X. Pérez Francisco X. Pérez
       格雷格·卡农 Greg Cannom
       艾伦 A. 安彭 Allan A. Apone
       David B. Miller David B. Miller
       Kenny Myers Kenny Myers
       Robin L. Neal Robin L. Neal
       Ronald W. Smith Ronald W. Smith
       马克·肖斯特罗姆 Mark Shostrom
       维·尼尔 Ve Neill
  1. Video
  2. ID                                       : 1
  3. Format                                   : HEVC
  4. Format/Info                              : High Efficiency Video Coding
  5. Format profile                           : Main 10@L5.1@Main
  6. HDR format                               : SMPTE ST 2086, HDR10 compatible
  7. Codec ID                                 : V_MPEGH/ISO/HEVC
  8. Duration                                 : 1 h 39 min
  9. Bit rate                                 : 8 023 kb/s
  10. Width                                    : 3 840 pixels
  11. Height                                   : 2 076 pixels
  12. Display aspect ratio                     : 1.85:1
  13. Frame rate mode                          : Constant
  14. Frame rate                               : 24.000 FPS
  15. Color space                              : YUV
  16. Chroma subsampling                       : 4:2:0
  17. Bit depth                                : 10 bits
  18. Bits/(Pixel*Frame)                       : 0.042
  19. Stream size                              : 5.58 GiB (65%)
  20. Writing library                          : x265 3.5+rarbg-HDR-38-20255e6:[Linux][clang 16.0.0][64 bit] 10bit
  21. Encoding settings                        : cpuid=1111039 / frame-threads=6 / wpp / no-pmode / no-pme / no-psnr / no-ssim / log-level=2 / input-csp=1 / input-res=3840x2076 / interlace=0 / total-frames=0 / level-idc=51 / high-tier=1 / uhd-bd=0 / ref=4 / no-allow-non-conformance / repeat-headers / annexb / aud / no-eob / no-eos / no-hrd / info / hash=0 / no-temporal-layers / no-open-gop / min-keyint=1 / keyint=24 / gop-lookahead=0 / bframes=4 / b-adapt=2 / b-pyramid / bframe-bias=0 / rc-lookahead=25 / lookahead-slices=4 / scenecut=40 / no-hist-scenecut / radl=0 / no-splice / no-intra-refresh / ctu=64 / min-cu-size=8 / rect / no-amp / max-tu-size=32 / tu-inter-depth=1 / tu-intra-depth=1 / limit-tu=0 / rdoq-level=2 / dynamic-rd=0.00 / no-ssim-rd / signhide / no-tskip / nr-intra=0 / nr-inter=0 / no-constrained-intra / strong-intra-smoothing / max-merge=3 / limit-refs=3 / no-limit-modes / me=3 / subme=3 / merange=57 / temporal-mvp / no-frame-dup / no-hme / weightp / no-weightb / no-analyze-src-pics / deblock=0:0 / no-sao / no-sao-non-deblock / rd=4 / selective-sao=0 / no-early-skip / rskip / no-fast-intra / no-tskip-fast / no-cu-lossless / no-b-intra / no-splitrd-skip / rdpenalty=0 / psy-rd=2.00 / psy-rdoq=1.00 / no-rd-refine / no-lossless / cbqpoffs=0 / crqpoffs=0 / rc=abr / bitrate=8000 / qcomp=0.60 / qpstep=4 / stats-write=0 / stats-read=2 / cplxblur=20.0 / qblur=0.5 / ipratio=1.40 / pbratio=1.30 / aq-mode=1 / aq-strength=1.00 / cutree / zone-count=0 / no-strict-cbr / qg-size=32 / no-rc-grain / qpmax=69 / qpmin=0 / no-const-vbv / sar=1 / overscan=0 / videoformat=5 / range=0 / colorprim=9 / transfer=16 / colormatrix=9 / chromaloc=0 / display-window=0 / master-display=G(13250,34500)B(7500,3000)R(34000,16000)WP(15635,16450)L(10000000,1) / cll=10000,585 / min-luma=0 / max-luma=1023 / log2-max-poc-lsb=8 / vui-timing-info / vui-hrd-info / slices=1 / no-opt-qp-pps / no-opt-ref-list-length-pps / no-multi-pass-opt-rps / scenecut-bias=0.05 / hist-threshold=0.03 / no-opt-cu-delta-qp / no-aq-motion / hdr10 / hdr10-opt / no-dhdr10-opt / no-idr-recovery-sei / analysis-reuse-level=0 / analysis-save-reuse-level=0 / analysis-load-reuse-level=0 / scale-factor=0 / refine-intra=0 / refine-inter=0 / refine-mv=1 / refine-ctu-distortion=0 / no-limit-sao / ctu-info=0 / no-lowpass-dct / refine-analysis-type=0 / copy-pic=1 / max-ausize-factor=1.0 / no-dynamic-refine / no-single-sei / no-hevc-aq / no-svt / no-field / qp-adaptation-range=1.00 / scenecut-aware-qp=0conformance-window-offsets / right=0 / bottom=0 / decoder-max-rate=0 / no-vbv-live-multi-pass
  22. Default                                  : Yes
  23. Forced                                   : No
  24. Color range                              : Limited
  25. Color primaries                          : BT.2020
  26. Transfer characteristics                 : PQ
  27. Matrix coefficients                      : BT.2020 non-constant
  28. Mastering display color primaries        : Display P3
  29. Mastering display luminance              : min: 0.0001 cd/m2, max: 1000 cd/m2
  30. Maximum Content Light Level              : 10000 cd/m2
  31. Maximum Frame-Average Light Level        : 585 cd/m2
  32. Audio #1
  33. ID                                       : 2
  34. Format                                   : DTS XLL
  35. Format/Info                              : Digital Theater Systems
  36. Commercial name                          : DTS-HD Master Audio
  37. Codec ID                                 : A_DTS
  38. Duration                                 : 1 h 39 min
  39. Bit rate mode                            : Variable
  40. Bit rate                                 : 3 847 kb/s
  41. Channel(s)                               : 6 channels
  42. Channel layout                           : C L R Ls Rs LFE
  43. Sampling rate                            : 48.0 kHz
  44. Frame rate                               : 93.750 FPS (512 SPF)
  45. Bit depth                                : 24 bits
  46. Compression mode                         : Lossless
  47. Stream size                              : 2.67 GiB (31%)
  48. Title                                    : English DTS-HD MA 5.1
  49. Language                                 : English
  50. Default                                  : Yes
  51. Forced                                   : No
  52. Audio #2
  53. ID                                       : 3
  54. Format                                   : AC-3
  55. Format/Info                              : Audio Coding 3
  56. Commercial name                          : Dolby Digital
  57. Codec ID                                 : A_AC3
  58. Duration                                 : 1 h 39 min
  59. Bit rate mode                            : Constant
  60. Bit rate                                 : 384 kb/s
  61. Channel(s)                               : 6 channels
  62. Channel layout                           : L R C LFE Ls Rs
  63. Sampling rate                            : 48.0 kHz
  64. Frame rate                               : 31.250 FPS (1536 SPF)
  65. Compression mode                         : Lossy
  66. Stream size                              : 273 MiB (3%)
  67. Title                                    : English DD 5.1
  68. Language                                 : English
  69. Service kind                             : Complete Main
  70. Default                                  : No
  71. Forced                                   : No
  72. Text #1
  73. ID                                       : 4
  74. Format                                   : UTF-8
  75. Codec ID                                 : S_TEXT/UTF8
  76. Codec ID/Info                            : UTF-8 Plain Text
  77. Duration                                 : 1 h 34 min
  78. Bit rate                                 : 30 b/s
  79. Frame rate                               : 0.145 FPS
  80. Count of elements                        : 825
  81. Stream size                              : 21.1 KiB (0%)
  82. Title                                    : English SRT
  83. Language                                 : English
  84. Default                                  : Yes
  85. Forced                                   : No
  86. Text #2
  87. ID                                       : 5
  88. Format                                   : UTF-8
  89. Codec ID                                 : S_TEXT/UTF8
  90. Codec ID/Info                            : UTF-8 Plain Text
  91. Duration                                 : 1 h 35 min
  92. Bit rate                                 : 41 b/s
  93. Frame rate                               : 0.206 FPS
  94. Count of elements                        : 1182
  95. Stream size                              : 29.1 KiB (0%)
  96. Title                                    : English SDH SRT
  97. Language                                 : English
  98. Default                                  : No
  99. Forced                                   : No
  100. Menu
  101. 00:00:00.000                             : en:Chapter 01
  102. 00:11:09.958                             : en:Chapter 02
  103. 00:20:30.125                             : en:Chapter 03
  104. 00:30:33.333                             : en:Chapter 04
  105. 00:39:26.500                             : en:Chapter 05
  106. 00:48:07.750                             : en:Chapter 06
  107. 00:56:14.041                             : en:Chapter 07
  108. 01:04:11.541                             : en:Chapter 08
  109. 01:11:32.916                             : en:Chapter 09
  110. 01:18:52.583                             : en:Chapter 10
  111. 01:26:42.041                             : en:Chapter 11
  112. 01:33:21.875                             : en:Chapter 12
复制代码











回复

使用道具 举报

蓝光币
1306
发表于 2023-1-8 11:41:31 | 显示全部楼层

这东西我收了!谢谢楼主!蓝光电影网真好!
回复 支持 反对

使用道具 举报

蓝光币
36
发表于 2023-1-8 11:57:12 | 显示全部楼层

这个帖子不回对不起自己!我想我是一天也不能离开蓝光电影网。
回复 支持 反对

使用道具 举报

蓝光币
1008
发表于 2023-1-8 13:00:27 | 显示全部楼层
不错的清晰度
回复 支持 反对

使用道具 举报

懒得打字嘛,点击右侧快捷回复 【右侧内容,后台自定义】
您需要登录后才可以回帖 登录 | 立即加入

本版积分规则

Archiver|小黑屋| 蓝光电影网 |网站地图

Copyright © 2021 Comsenz Inc. Powered by 蓝光电影网

蓝光电影网

本站内容由用户自主分享和转载自互联网,转载目的在于传递更多信息,并不代表本网赞同其观点和对其真实性负责。

如有侵权、违反国家法律政策行为,请联系我们,我们会第一时间及时清除和处理!

举报反馈邮箱:4k1080.com@gmail.com

快速回复 返回顶部 返回列表