找回密码

蓝光电影网

查看: 187|回复: 6

[2160p-WEB] 掮客[中文字幕].Broker.2022.KOREAN.2160p.NF.WEB-DL.x265.10bit.SDR.DTS-HD.MA.TrueHD.5.1-NOGRP 15.15GB

[复制链接]
蓝光币
1080
发表于 2023-1-8 00:47:32 | 显示全部楼层 |阅读模式


◎标  题 掮客
◎译  名 代理人 / 孩子转运站(港) / 婴儿转运站(台) / 经手人 / 掮客人 / 中心人 / 中介人 / 摇篮 / 요람 / ベイビー・ブローカー / ブローカー / Baby Broker / Baby /  Box /  Broker / Broker
◎片  名 브로커
◎年  代 2022
◎产  地 韩国
◎类  别 剧情
◎语  言 韩语
◎上映日期 2022-05-26(戛纳电影节) / 2022-06-08(韩国)
◎IMDb链接 https://www.imdb.com/title/tt13056052/
◎豆瓣链接 https://movie.douban.com/subject/35192111/
◎片  长 126分钟
◎导  演 是枝裕和 Hirokazu Koreeda
◎编  剧 是枝裕和 Hirokazu Koreeda
◎演  员 宋康昊 Kang-ho Song
       姜栋元 Dong-won Kang
       裴斗娜 Doona Bae
       李知恩 IU
       李珠英 Joo-young Lee
       白贤镇 Hyeon-jin Baek
       金艺恩 Ye-eun Kim
       宋早晨 Sae-byeok Song
       李美敬 Miky Lee
       郑在日 Jae-il Jung
       洪坰杓 Kyung-Pyo Hong
       是枝裕和 Hirokazu Koreeda
◎简  介
  尚贤(宋康昊 饰)经营洗衣店,惋惜买卖淡静更欠债累累。好兄弟东洙(姜栋元 饰)自己是孤儿,为“婴儿暂存箱”机构工作。在一个雨夜,他们竟奥秘带走其中一个箱里的男婴。翌日,年轻的母亲素英(李知恩 饰)却找上门要求领回自己的孩子雨盛!本想报警揭发,但素英终极竟赞成让两个“中心人”为儿子寻觅更好的怙恃,并决议跟从两人同业。另一边厢,刑警秀珍(裴斗娜 饰)联同子弟李刑警(李珠英 饰)本来一向跟踪着他们,黑暗收集证据,决心拉人定案!剧情由暂存箱里的婴儿激发,连累方圆5个关键人物,展开一段意想不到的怪异旅程,震动最奥妙的圆滑人情。
  1. Video
  2. ID                                       : 1
  3. Format                                   : HEVC
  4. Format/Info                              : High Efficiency Video Coding
  5. Format profile                           : Main [email protected]@Main
  6. Codec ID                                 : V_MPEGH/ISO/HEVC
  7. Duration                                 : 2 h 9 min
  8. Bit rate                                 : 11.9 Mb/s
  9. Width                                    : 3 840 pixels
  10. Height                                   : 2 160 pixels
  11. Display aspect ratio                     : 16:9
  12. Frame rate mode                          : Constant
  13. Frame rate                               : 23.976 (24000/1001) FPS
  14. Color space                              : YUV
  15. Chroma subsampling                       : 4:2:0
  16. Bit depth                                : 10 bits
  17. Bits/(Pixel*Frame)                       : 0.060
  18. Stream size                              : 10.7 GiB (71%)
  19. Default                                  : Yes
  20. Forced                                   : No
  21. Color range                              : Limited
  22. Color primaries                          : BT.709
  23. Transfer characteristics                 : BT.709
  24. Matrix coefficients                      : BT.709
  25. Audio #1
  26. ID                                       : 2
  27. Format                                   : MLP FBA
  28. Format/Info                              : Meridian Lossless Packing FBA
  29. Commercial name                          : Dolby TrueHD
  30. Codec ID                                 : A_TRUEHD
  31. Duration                                 : 2 h 9 min
  32. Bit rate mode                            : Variable
  33. Bit rate                                 : 1 744 kb/s
  34. Maximum bit rate                         : 3 000 kb/s
  35. Channel(s)                               : 6 channels
  36. Channel layout                           : L R C LFE Ls Rs
  37. Sampling rate                            : 96.0 kHz
  38. Frame rate                               : 1 200.000 FPS (80 SPF)
  39. Compression mode                         : Lossless
  40. Stream size                              : 1.58 GiB (10%)
  41. Language                                 : Korean
  42. Default                                  : Yes
  43. Forced                                   : No
  44. Audio #2
  45. ID                                       : 3
  46. Format                                   : DTS XLL
  47. Format/Info                              : Digital Theater Systems
  48. Commercial name                          : DTS-HD Master Audio
  49. Codec ID                                 : A_DTS
  50. Duration                                 : 2 h 9 min
  51. Bit rate mode                            : Variable
  52. Bit rate                                 : 2 439 kb/s
  53. Channel(s)                               : 6 channels
  54. Channel layout                           : C L R Ls Rs LFE
  55. Sampling rate                            : 96.0 kHz
  56. Frame rate                               : 187.500 FPS (512 SPF)
  57. Bit depth                                : 16 bits
  58. Compression mode                         : Lossless
  59. Stream size                              : 2.20 GiB (15%)
  60. Language                                 : Korean
  61. Default                                  : No
  62. Forced                                   : No
  63. Audio #3
  64. ID                                       : 4
  65. Format                                   : AC-3
  66. Format/Info                              : Audio Coding 3
  67. Commercial name                          : Dolby Digital
  68. Codec ID                                 : A_AC3
  69. Duration                                 : 2 h 9 min
  70. Bit rate mode                            : Constant
  71. Bit rate                                 : 640 kb/s
  72. Channel(s)                               : 6 channels
  73. Channel layout                           : L R C LFE Ls Rs
  74. Sampling rate                            : 48.0 kHz
  75. Frame rate                               : 31.250 FPS (1536 SPF)
  76. Compression mode                         : Lossy
  77. Stream size                              : 592 MiB (4%)
  78. Language                                 : Korean
  79. Service kind                             : Complete Main
  80. Default                                  : No
  81. Forced                                   : No
  82. Text #1
  83. ID                                       : 5
  84. Format                                   : UTF-8
  85. Codec ID                                 : S_TEXT/UTF8
  86. Codec ID/Info                            : UTF-8 Plain Text
  87. Duration                                 : 2 h 1 min
  88. Bit rate                                 : 46 b/s
  89. Frame rate                               : 0.190 FPS
  90. Count of elements                        : 1381
  91. Stream size                              : 41.1 KiB (0%)
  92. Language                                 : English
  93. Default                                  : Yes
  94. Forced                                   : No
  95. Text #2
  96. ID                                       : 6
  97. Format                                   : UTF-8
  98. Codec ID                                 : S_TEXT/UTF8
  99. Codec ID/Info                            : UTF-8 Plain Text
  100. Duration                                 : 4 s 955 ms
  101. Bit rate                                 : 24 b/s
  102. Frame rate                               : 0.202 FPS
  103. Count of elements                        : 1
  104. Stream size                              : 15.0 Bytes (0%)
  105. Title                                    : Forced
  106. Language                                 : Korean
  107. Default                                  : No
  108. Forced                                   : Yes
  109. Text #3
  110. ID                                       : 7
  111. Format                                   : UTF-8
  112. Codec ID                                 : S_TEXT/UTF8
  113. Codec ID/Info                            : UTF-8 Plain Text
  114. Duration                                 : 2 h 1 min
  115. Bit rate                                 : 35 b/s
  116. Frame rate                               : 0.204 FPS
  117. Count of elements                        : 1487
  118. Stream size                              : 31.7 KiB (0%)
  119. Title                                    : Cantonese (Traditional)
  120. Language                                 : Cantonese (Hant)
  121. Default                                  : No
  122. Forced                                   : No
  123. Text #4
  124. ID                                       : 8
  125. Format                                   : UTF-8
  126. Codec ID                                 : S_TEXT/UTF8
  127. Codec ID/Info                            : UTF-8 Plain Text
  128. Duration                                 : 2 h 1 min
  129. Bit rate                                 : 43 b/s
  130. Frame rate                               : 0.225 FPS
  131. Count of elements                        : 1640
  132. Stream size                              : 39.1 KiB (0%)
  133. Title                                    : Mandarin (Traditional)
  134. Language                                 : Mandarin (Hant)
  135. Default                                  : No
  136. Forced                                   : No
  137. Text #5
  138. ID                                       : 9
  139. Format                                   : UTF-8
  140. Codec ID                                 : S_TEXT/UTF8
  141. Codec ID/Info                            : UTF-8 Plain Text
  142. Duration                                 : 2 h 4 min
  143. Bit rate                                 : 44 b/s
  144. Frame rate                               : 0.202 FPS
  145. Count of elements                        : 1515
  146. Stream size                              : 41.1 KiB (0%)
  147. Language                                 : Japanese
  148. Default                                  : No
  149. Forced                                   : No
  150. Text #6
  151. ID                                       : 10
  152. Format                                   : UTF-8
  153. Codec ID                                 : S_TEXT/UTF8
  154. Codec ID/Info                            : UTF-8 Plain Text
  155. Duration                                 : 2 h 0 min
  156. Bit rate                                 : 60 b/s
  157. Frame rate                               : 0.233 FPS
  158. Count of elements                        : 1681
  159. Stream size                              : 53.4 KiB (0%)
  160. Language                                 : Korean
  161. Default                                  : No
  162. Forced                                   : No
  163. Text #7
  164. ID                                       : 11
  165. Format                                   : UTF-8
  166. Codec ID                                 : S_TEXT/UTF8
  167. Codec ID/Info                            : UTF-8 Plain Text
  168. Duration                                 : 2 h 3 min
  169. Bit rate                                 : 85 b/s
  170. Frame rate                               : 0.280 FPS
  171. Count of elements                        : 2072
  172. Stream size                              : 77.0 KiB (0%)
  173. Title                                    : SDH
  174. Language                                 : Korean
  175. Default                                  : No
  176. Forced                                   : No
  177. Text #8
  178. ID                                       : 12
  179. Format                                   : PGS
  180. Muxing mode                              : zlib
  181. Codec ID                                 : S_HDMV/PGS
  182. Codec ID/Info                            : Picture based subtitle format used on BDs/HD-DVDs
  183. Duration                                 : 2 h 1 min
  184. Bit rate                                 : 34.7 kb/s
  185. Frame rate                               : 0.409 FPS
  186. Count of elements                        : 2980
  187. Stream size                              : 30.1 MiB (0%)
  188. Language                                 : English
  189. Default                                  : No
  190. Forced                                   : No
  191. Text #9
  192. ID                                       : 13
  193. Format                                   : PGS
  194. Muxing mode                              : zlib
  195. Codec ID                                 : S_HDMV/PGS
  196. Codec ID/Info                            : Picture based subtitle format used on BDs/HD-DVDs
  197. Duration                                 : 2 h 1 min
  198. Bit rate                                 : 27.8 kb/s
  199. Frame rate                               : 0.409 FPS
  200. Count of elements                        : 2984
  201. Stream size                              : 24.1 MiB (0%)
  202. Title                                    : Hong Kong
  203. Language                                 : Chinese (HK)
  204. Default                                  : No
  205. Forced                                   : No
  206. Menu
  207. 00:00:00.000                             : en:Chapter 01
  208. 00:09:54.093                             : en:Chapter 02
  209. 00:20:49.165                             : en:Chapter 03
  210. 00:32:04.881                             : en:Chapter 04
  211. 00:42:32.967                             : en:Chapter 05
  212. 00:53:11.605                             : en:Chapter 06
  213. 01:04:57.685                             : en:Chapter 07
  214. 01:13:42.627                             : en:Chapter 08
  215. 01:24:38.365                             : en:Chapter 09
  216. 01:36:18.856                             : en:Chapter 10
  217. 01:48:01.975                             : en:Chapter 11
  218. 02:00:30.682                             : en:Chapter 12
复制代码











回复

使用道具 举报

蓝光币
43
发表于 2023-1-8 03:03:07 | 显示全部楼层
楼主发贴辛苦了,谢谢楼主分享!我觉得蓝光电影网是注册对了!
回复 支持 反对

使用道具 举报

蓝光币
278
发表于 2023-1-8 08:36:10 | 显示全部楼层
谢谢分享好资源
回复 支持 反对

使用道具 举报

蓝光币
259
发表于 2023-1-8 09:42:45 | 显示全部楼层

楼主太厉害了!楼主,电影应该很好看我觉得蓝光电影网真是个好地方!
回复 支持 反对

使用道具 举报

蓝光币
88
发表于 2023-1-8 10:44:15 | 显示全部楼层

楼主太厉害了!楼主,电影应该很好看我觉得蓝光电影网真是个好地方!
回复 支持 反对

使用道具 举报

蓝光币
88
发表于 2023-1-8 12:32:05 | 显示全部楼层
顶楼主辛苦发帖,战胜疫情都靠蓝光电影网了
回复 支持 反对

使用道具 举报

蓝光币
44
发表于 2023-1-8 18:06:34 | 显示全部楼层
谢谢楼主分享!
回复 支持 反对

使用道具 举报

懒得打字嘛,点击右侧快捷回复 【右侧内容,后台自定义】
您需要登录后才可以回帖 登录 | 立即加入

本版积分规则

Archiver|小黑屋| 蓝光电影网 |网站地图

Copyright © 2021 Comsenz Inc. Powered by 蓝光电影网

蓝光电影网

本站内容由用户自主分享和转载自互联网,转载目的在于传递更多信息,并不代表本网赞同其观点和对其真实性负责。

如有侵权、违反国家法律政策行为,请联系我们,我们会第一时间及时清除和处理!

举报反馈邮箱:[email protected]

快速回复 返回顶部 返回列表