找回密码

蓝光电影网

查看: 17|回复: 0

[动作] 恐龙战队.Rangers.2000.1080p.AMZN.WEBRip.DDP2.0.x264-THR 7.02GB

[复制链接]
蓝光币
1080
发表于 2023-1-8 00:47:34 | 显示全部楼层 |阅读模式


◎标  题 恐龙战队
◎译  名 黑鹰坠落
◎片  名 Rangers
◎年  代 2000
◎产  地 美国
◎类  别 行动
◎语  言 英语
◎上映日期 2000-10-11
◎IMDb评分 3/10 (235人评价)
◎IMDb链接 https://www.imdb.com/title/tt0218542/
◎豆瓣评分 4.1/10 (56人评价)
◎豆瓣链接 https://movie.douban.com/subject/2237393/
◎片  长 99分钟
◎导  演 吉姆·温诺斯基 Jim Wynorski
◎编  剧 Steve Latshaw Steve Latshaw
◎演  员 格伦·普拉默 Glenn Plummer
       马特·麦考伊 Matt McCoy
       柯宾·伯恩森 Corbin Bernsen
       瑞安·库托纳 Ryan Cutrona
       达尔坦彦·埃德蒙兹 Dartanyan Edmonds
       雷内·里维拉 Rene Rivera
       史蒂夫·弗兰肯 Steve Franken
       Nadine Corde Nadine Corde
       马克·瓦哈尼安 Marc Vahanian
       Hashem Shaalan Hashem Shaalan
       迈克尔·曼特尔 Michael Mantell
       Brad Slaight Brad Slaight
       Alison Semenza Alison Semenza
       Alan B. Bursteen Alan B. Bursteen
       Ken Blakey Ken Blakey
       Chris Ervin Chris Ervin
◎简  介
  A black ops unit goes to middle east after a terrorist. They are betrayed and their operative is caught. Later, unit leader starts an investigation. Meanwile the enemy offers the operative a chance for revenge against his superiors.
  1. Video
  2. ID                                       : 1
  3. Format                                   : AVC
  4. Format/Info                              : Advanced Video Codec
  5. Format profile                           : [email protected]
  6. Format settings                          : CABAC / 4 Ref Frames
  7. Format settings, CABAC                   : Yes
  8. Format settings, Reference frames        : 4 frames
  9. Codec ID                                 : V_MPEG4/ISO/AVC
  10. Duration                                 : 1 h 39 min
  11. Bit rate mode                            : Constant
  12. Bit rate                                 : 10 000 kb/s
  13. Width                                    : 1 920 pixels
  14. Height                                   : 1 080 pixels
  15. Display aspect ratio                     : 16:9
  16. Frame rate mode                          : Constant
  17. Frame rate                               : 23.976 (24000/1001) FPS
  18. Color space                              : YUV
  19. Chroma subsampling                       : 4:2:0
  20. Bit depth                                : 8 bits
  21. Scan type                                : Progressive
  22. Bits/(Pixel*Frame)                       : 0.201
  23. Stream size                              : 6.86 GiB (98%)
  24. Default                                  : Yes
  25. Forced                                   : No
  26. Color range                              : Limited
  27. Color primaries                          : BT.709
  28. Transfer characteristics                 : BT.709
  29. Matrix coefficients                      : BT.709
  30. Audio
  31. ID                                       : 2
  32. Format                                   : E-AC-3
  33. Format/Info                              : Enhanced AC-3
  34. Commercial name                          : Dolby Digital Plus
  35. Codec ID                                 : A_EAC3
  36. Duration                                 : 1 h 39 min
  37. Bit rate mode                            : Constant
  38. Bit rate                                 : 224 kb/s
  39. Channel(s)                               : 2 channels
  40. Channel layout                           : L R
  41. Sampling rate                            : 48.0 kHz
  42. Frame rate                               : 31.250 FPS (1536 SPF)
  43. Compression mode                         : Lossy
  44. Stream size                              : 160 MiB (2%)
  45. Language                                 : English
  46. Service kind                             : Complete Main
  47. Default                                  : Yes
  48. Forced                                   : No
  49. Text
  50. ID                                       : 3
  51. Format                                   : UTF-8
  52. Codec ID                                 : S_TEXT/UTF8
  53. Codec ID/Info                            : UTF-8 Plain Text
  54. Duration                                 : 1 h 33 min
  55. Bit rate                                 : 51 b/s
  56. Frame rate                               : 0.195 FPS
  57. Count of elements                        : 1099
  58. Stream size                              : 35.5 KiB (0%)
  59. Language                                 : English (US)
  60. Default                                  : No
  61. Forced                                   : No
复制代码











回复

使用道具 举报

懒得打字嘛,点击右侧快捷回复 【右侧内容,后台自定义】
您需要登录后才可以回帖 登录 | 立即加入

本版积分规则

Archiver|小黑屋| 蓝光电影网 |网站地图

Copyright © 2021 Comsenz Inc. Powered by 蓝光电影网

蓝光电影网

本站内容由用户自主分享和转载自互联网,转载目的在于传递更多信息,并不代表本网赞同其观点和对其真实性负责。

如有侵权、违反国家法律政策行为,请联系我们,我们会第一时间及时清除和处理!

举报反馈邮箱:[email protected]

快速回复 返回顶部 返回列表