找回密码

蓝光电影网

查看: 26|回复: 0

[其他] 西班牙土地.The.Spanish.Earth.1937.1080p.AMZN.WEBRip.DDP2.0.x264-TEPES 3.76GB

[复制链接]
蓝光币
1078
发表于 2023-1-8 00:47:35 | 显示全部楼层 |阅读模式


◎标  题 西班牙地盘
◎片  名 The Spanish Earth
◎年  代 1937
◎产  地 美国
◎类  别 记载片 / 战争
◎语  言 英语 / 西班牙语 / 德语
◎上映日期 1937-07-11(加州首映) / 1937-08-20(美国)
◎IMDb评分 6.6/10 (813人评价)
◎IMDb链接 https://www.imdb.com/title/tt0029594/
◎豆瓣评分 7.7/10 (401人评价)
◎豆瓣链接 https://movie.douban.com/subject/1429063/
◎片  长 52分钟
◎导  演 尤里斯·伊文思 Joris Ivens
◎编  剧 约翰·多斯·帕索斯 John Dos Passos
       欧内斯特·海明威 Ernest Hemingway
       尤里斯·伊文思 Joris Ivens
◎演  员 曼努埃尔·阿扎尼亚·迪亚斯 Manuel Azaña
       尤里斯·伊文思 Joris Ivens
◎简  介
  伊文思(1898~1989)                                       
                                    Ivens,Joris                                       
                                    荷兰电影导演。1898年11月18日生于奈梅亨 ,1989年6月28日卒于巴黎。1927年开办荷兰第一个电影俱乐部。在先锋派电影的影响下,他早期影片带有抒怀的唯美主义偏向 ,如《桥》、《雨》等。1930年摄制了表示荷兰群众填海造田的著名记载片《须德海》。尔后,在天下各地拍摄记载片 ,如记载比利时煤矿工人大罢工的《博里纳日》、反应西班牙战争的《西班牙的地盘》、表示中国抗日战争的《四万万群众》和记载第二次天下大战的《熟悉你的仇敌:日本》等 。战后,在苏联、波兰、巴西、中国、法国、意大利、马里 、古巴、越南等国拍摄了大量记载片,如《战争一定在全天下成功》、《天下青年联欢节》、《急流之歌》、《五支歌》、《塞纳河边》、《天空、地盘》、《愚公移山》等。由于他在天下各地拍片,故有“飞翔的荷兰人”之称。...
  1. Video
  2. ID                                       : 1
  3. Format                                   : AVC
  4. Format/Info                              : Advanced Video Codec
  5. Format profile                           : [email protected]
  6. Format settings                          : CABAC / 4 Ref Frames
  7. Format settings, CABAC                   : Yes
  8. Format settings, Reference frames        : 4 frames
  9. Codec ID                                 : V_MPEG4/ISO/AVC
  10. Duration                                 : 52 min 53 s
  11. Bit rate mode                            : Constant
  12. Bit rate                                 : 10 000 kb/s
  13. Width                                    : 1 920 pixels
  14. Height                                   : 1 080 pixels
  15. Display aspect ratio                     : 16:9
  16. Frame rate mode                          : Constant
  17. Frame rate                               : 29.970 (30000/1001) FPS
  18. Standard                                 : NTSC
  19. Color space                              : YUV
  20. Chroma subsampling                       : 4:2:0
  21. Bit depth                                : 8 bits
  22. Scan type                                : Progressive
  23. Bits/(Pixel*Frame)                       : 0.161
  24. Stream size                              : 3.68 GiB (98%)
  25. Language                                 : English
  26. Default                                  : Yes
  27. Forced                                   : No
  28. Color range                              : Limited
  29. Color primaries                          : BT.709
  30. Transfer characteristics                 : BT.709
  31. Matrix coefficients                      : BT.709
  32. Audio
  33. ID                                       : 2
  34. Format                                   : E-AC-3
  35. Format/Info                              : Enhanced AC-3
  36. Commercial name                          : Dolby Digital Plus
  37. Codec ID                                 : A_EAC3
  38. Duration                                 : 52 min 53 s
  39. Bit rate mode                            : Constant
  40. Bit rate                                 : 224 kb/s
  41. Channel(s)                               : 2 channels
  42. Channel layout                           : L R
  43. Sampling rate                            : 48.0 kHz
  44. Frame rate                               : 31.250 FPS (1536 SPF)
  45. Compression mode                         : Lossy
  46. Stream size                              : 84.7 MiB (2%)
  47. Language                                 : English
  48. Service kind                             : Complete Main
  49. Default                                  : Yes
  50. Forced                                   : No
  51. Text #1
  52. ID                                       : 3
  53. Format                                   : UTF-8
  54. Codec ID                                 : S_TEXT/UTF8
  55. Codec ID/Info                            : UTF-8 Plain Text
  56. Duration                                 : 51 min 14 s
  57. Bit rate                                 : 20 b/s
  58. Frame rate                               : 0.065 FPS
  59. Count of elements                        : 201
  60. Stream size                              : 7.86 KiB (0%)
  61. Language                                 : English
  62. Default                                  : No
  63. Forced                                   : No
  64. Text #2
  65. ID                                       : 4
  66. Format                                   : UTF-8
  67. Codec ID                                 : S_TEXT/UTF8
  68. Codec ID/Info                            : UTF-8 Plain Text
  69. Duration                                 : 52 min 26 s
  70. Bit rate                                 : 27 b/s
  71. Frame rate                               : 0.108 FPS
  72. Count of elements                        : 340
  73. Stream size                              : 10.6 KiB (0%)
  74. Title                                    : SDH
  75. Language                                 : English
  76. Default                                  : No
  77. Forced                                   : No
复制代码











回复

使用道具 举报

懒得打字嘛,点击右侧快捷回复 【右侧内容,后台自定义】
您需要登录后才可以回帖 登录 | 立即加入

本版积分规则

Archiver|小黑屋| 蓝光电影网 |网站地图

Copyright © 2021 Comsenz Inc. Powered by 蓝光电影网

蓝光电影网

本站内容由用户自主分享和转载自互联网,转载目的在于传递更多信息,并不代表本网赞同其观点和对其真实性负责。

如有侵权、违反国家法律政策行为,请联系我们,我们会第一时间及时清除和处理!

举报反馈邮箱:[email protected]

快速回复 返回顶部 返回列表