找回密码

蓝光电影网

查看: 20|回复: 0

[其他] Une autre idée du monde.The.Will.To.See.2021.1080p.WEBRip.AAC2.0.x264-CANDY 2.11GB

[复制链接]
蓝光币
1082
发表于 2023-1-8 00:47:35 | 显示全部楼层 |阅读模式


◎标  题 Une autre idée du monde
◎年  代 2021
◎产  地 法国
◎类  别 记载片
◎语  言 法语
◎IMDb评分 3/10 (82人评价)
◎IMDb链接 https://www.imdb.com/title/tt14866692/
◎豆瓣链接 https://movie.douban.com/subject/35632720/
◎导  演 伯纳德·亨利·莱维 Bernard-Henri Lévy
       马克·罗素 Marc Roussel
◎编  剧 伯纳德·亨利·莱维 Bernard-Henri Lévy
◎演  员 伯纳德·亨利·莱维 Bernard-Henri Lévy
  1. Video
  2. ID                                       : 1
  3. Format                                   : AVC
  4. Format/Info                              : Advanced Video Codec
  5. Format profile                           : [email protected]
  6. Format settings                          : CABAC / 4 Ref Frames
  7. Format settings, CABAC                   : Yes
  8. Format settings, Reference frames        : 4 frames
  9. Codec ID                                 : V_MPEG4/ISO/AVC
  10. Duration                                 : 1 h 38 min
  11. Bit rate                                 : 3 000 kb/s
  12. Width                                    : 1 920 pixels
  13. Height                                   : 1 080 pixels
  14. Display aspect ratio                     : 16:9
  15. Frame rate mode                          : Constant
  16. Frame rate                               : 30.000 FPS
  17. Color space                              : YUV
  18. Chroma subsampling                       : 4:2:0
  19. Bit depth                                : 8 bits
  20. Scan type                                : Progressive
  21. Bits/(Pixel*Frame)                       : 0.048
  22. Stream size                              : 2.02 GiB (96%)
  23. Writing library                          : x264 core 157
  24. Encoding settings                        : cabac=1 / ref=3 / deblock=1:0:0 / analyse=0x1:0x111 / me=hex / subme=7 / psy=1 / psy_rd=1.00:0.00 / mixed_ref=1 / me_range=16 / chroma_me=1 / trellis=1 / 8x8dct=0 / cqm=0 / deadzone=21,11 / fast_pskip=1 / chroma_qp_offset=-2 / threads=34 / lookahead_threads=5 / sliced_threads=0 / nr=0 / decimate=1 / interlaced=0 / bluray_compat=0 / constrained_intra=0 / bframes=3 / b_pyramid=2 / b_adapt=1 / b_bias=0 / direct=1 / weightb=1 / open_gop=0 / weightp=2 / keyint=90 / keyint_min=9 / scenecut=40 / intra_refresh=0 / rc_lookahead=40 / rc=abr / mbtree=1 / bitrate=3000 / ratetol=1.0 / qcomp=0.60 / qpmin=0 / qpmax=69 / qpstep=4 / ip_ratio=1.40 / aq=1:1.00
  25. Language                                 : English
  26. Default                                  : Yes
  27. Forced                                   : No
  28. Audio
  29. ID                                       : 2
  30. Format                                   : AAC LC
  31. Format/Info                              : Advanced Audio Codec Low Complexity
  32. Codec ID                                 : A_AAC-2
  33. Duration                                 : 1 h 38 min
  34. Bit rate                                 : 128 kb/s
  35. Channel(s)                               : 2 channels
  36. Channel layout                           : L R
  37. Sampling rate                            : 44.1 kHz
  38. Frame rate                               : 43.066 FPS (1024 SPF)
  39. Compression mode                         : Lossy
  40. Stream size                              : 89.9 MiB (4%)
  41. Language                                 : English
  42. Default                                  : Yes
  43. Forced                                   : No
复制代码











回复

使用道具 举报

懒得打字嘛,点击右侧快捷回复 【右侧内容,后台自定义】
您需要登录后才可以回帖 登录 | 立即加入

本版积分规则

Archiver|小黑屋| 蓝光电影网 |网站地图

Copyright © 2021 Comsenz Inc. Powered by 蓝光电影网

蓝光电影网

本站内容由用户自主分享和转载自互联网,转载目的在于传递更多信息,并不代表本网赞同其观点和对其真实性负责。

如有侵权、违反国家法律政策行为,请联系我们,我们会第一时间及时清除和处理!

举报反馈邮箱:[email protected]

快速回复 返回顶部 返回列表