找回密码

蓝光电影网

查看: 192|回复: 0

少年歌行 风花雪月篇/少年歌行 第二季[全32集][国语中字].Great.Journey.of.Teenagers.S02.2021.2160p.WEB-DL.H265.AAC-ADWeb 34.93GB

[复制链接]
蓝光币
1084
发表于 2023-1-8 01:26:55 | 显示全部楼层 |阅读模式
少年歌行 风花雪月篇/少年歌行 第二季[全32集][国语中字].Great.Journey.of.Teenagers.S02.2021.2160p.WEB-DL.H265.AAC-ADWeb 34.93GB-1.jpg

◎译  名 Youths and Golden Coffin / 少年歌行 第二季 / Great Journey of Teenagers 2nd Season
◎片  名 少年歌行 风花雪月篇
◎年  代 2021
◎产  地 中国大陆
◎类  别 剧情 / 动画
◎语  言 汉语普通话
◎上映日期 2021-07-28(中国大陆)
◎豆瓣评星 ★★★★☆
◎豆瓣评分 7.7/10 from 12,862 users
◎豆瓣链接 https://movie.douban.com/subject/34925305/
◎单集片长 20分钟
◎集  数 32
◎导  演 陈升垚 / Shengyao Chen
      郭勇 / Guo Yong
◎演  员 张博恒 / Boheng Zhang
      张杰 / Jie Zhang
      杨婧 / Jing Yang
      魏超 / Chao Wei | 配 唐莲
      赵毅 / Yi Zhao
      褚珺 / Jun Chu | 配 司空千落
      赵毅 / Yi Zhao | 配 萧瑟

◎简  介 

  不惧失利,不枉少年。萧瑟、雷无桀来到雪月城后,司空长风强行收萧瑟为徒,雷无桀与李寒衣姐弟相认。随着萧瑟进入雪月城,天启的其他王子捋臂张拳、纷纷追求盟友,一场皇子间的争斗在雷家堡的豪杰宴上渐渐展开。
  1. General
  2. Complete name                            : Great.Journey.of.Teenagers.S02E01.2021.2160p.WEB-DL.H265.AAC-ADWeb.mp4
  3. Format                                   : MPEG-4
  4. Format profile                           : Base Media
  5. Codec ID                                 : isom (isom/iso2/mp41)
  6. File size                                : 1.33 GiB
  7. Duration                                 : 19 min 20 s
  8. Overall bit rate mode                    : Variable
  9. Overall bit rate                         : 9 854 kb/s
  10. Writing application                      : Lavf58.32.104

  11. Video
  12. ID                                       : 1
  13. Format                                   : HEVC
  14. Format/Info                              : High Efficiency Video Coding
  15. Format profile                           : Main [email][email protected][/email]@Main
  16. Codec ID                                 : hev1
  17. Codec ID/Info                            : High Efficiency Video Coding
  18. Duration                                 : 19 min 20 s
  19. Bit rate                                 : 9 651 kb/s
  20. Width                                    : 3 840 pixels
  21. Height                                   : 2 160 pixels
  22. Display aspect ratio                     : 16:9
  23. Frame rate mode                          : Constant
  24. Frame rate                               : 60.000 FPS
  25. Color space                              : YUV
  26. Chroma subsampling                       : 4:2:0
  27. Bit depth                                : 10 bits
  28. Bits/(Pixel*Frame)                       : 0.019
  29. Stream size                              : 1.30 GiB (98%)
  30. Color range                              : Limited
  31. Color primaries                          : BT.709
  32. Transfer characteristics                 : BT.709
  33. Matrix coefficients                      : BT.709
  34. Codec configuration box                  : hvcC

  35. Audio
  36. ID                                       : 2
  37. Format                                   : AAC LC
  38. Format/Info                              : Advanced Audio Codec Low Complexity
  39. Codec ID                                 : mp4a-40-2
  40. Duration                                 : 19 min 20 s
  41. Bit rate mode                            : Variable
  42. Bit rate                                 : 192 kb/s
  43. Maximum bit rate                         : 195 kb/s
  44. Channel(s)                               : 2 channels
  45. Channel layout                           : L R
  46. Sampling rate                            : 44.1 kHz
  47. Frame rate                               : 43.066 FPS (1024 SPF)
  48. Compression mode                         : Lossy
  49. Stream size                              : 26.2 MiB (2%)
  50. Default                                  : Yes
  51. Alternate group                          : 1
复制代码
少年歌行 风花雪月篇/少年歌行 第二季[全32集][国语中字].Great.Journey.of.Teenagers.S02.2021.2160p.WEB-DL.H265.AAC-ADWeb 34.93GB-2.png
少年歌行 风花雪月篇/少年歌行 第二季[全32集][国语中字].Great.Journey.of.Teenagers.S02.2021.2160p.WEB-DL.H265.AAC-ADWeb 34.93GB-3.jpg
少年歌行 风花雪月篇/少年歌行 第二季[全32集][国语中字].Great.Journey.of.Teenagers.S02.2021.2160p.WEB-DL.H265.AAC-ADWeb 34.93GB-4.jpg
少年歌行 风花雪月篇/少年歌行 第二季[全32集][国语中字].Great.Journey.of.Teenagers.S02.2021.2160p.WEB-DL.H265.AAC-ADWeb 34.93GB-5.jpg
少年歌行 风花雪月篇/少年歌行 第二季[全32集][国语中字].Great.Journey.of.Teenagers.S02.2021.2160p.WEB-DL.H265.AAC-ADWeb 34.93GB-6.jpg








回复

使用道具 举报

懒得打字嘛,点击右侧快捷回复 【右侧内容,后台自定义】
您需要登录后才可以回帖 登录 | 立即加入

本版积分规则

Archiver|小黑屋| 蓝光电影网 |网站地图

Copyright © 2021 Comsenz Inc. Powered by 蓝光电影网

蓝光电影网

本站内容由用户自主分享和转载自互联网,转载目的在于传递更多信息,并不代表本网赞同其观点和对其真实性负责。

如有侵权、违反国家法律政策行为,请联系我们,我们会第一时间及时清除和处理!

举报反馈邮箱:[email protected]

快速回复 返回顶部 返回列表