找回密码

蓝光电影网

查看: 145|回复: 2

大染坊[全24集].Da.Ran.Fang.2003.Complete.WEB-DL.4K.HEVC.AAC-CHDWEB 38.37GB

[复制链接]
蓝光币
1084
发表于 2023-1-8 02:33:42 | 显示全部楼层 |阅读模式
大染坊[全24集].Da.Ran.Fang.2003.Complete.WEB-DL.4K.HEVC.AAC-CHDWEB 38.37GB-1.jpg

◎片  名 大染坊
◎年  代 2003
◎产  地 中国大陆
◎类  别 剧情
◎语  言 汉语普通话
◎上映日期 2003-10-09(中国大陆)
◎IMDb评分  7.7/10 from 9 users
◎IMDb链接  https://www.imdb.com/title/tt4052596
◎豆瓣评分 9.1/10 from 20063 users
◎豆瓣链接 https://movie.douban.com/subject/2248529/
◎集  数 24
◎片  长 46分钟
◎导  演 王文杰 Wenjie Wang
◎编  剧 陈杰 Jie Chen
◎主  演 侯勇 Yong Hou
       罗刚 Gang Luo
       萨日娜 Sa Rina
       刘奕君 Yijun Liu
       王思懿 Siyi Wang
       孙俪 Betty Sun
       何伟 Wei He
       张秋歌 Qiuge Zhang


◎标  签 国产电视剧 | 贸易 | 电视剧 | 典范 | 励志 | 大染坊 | 大陆 | 中国

◎简  介  

  清代末年,一派萧瑟之气。怙恃早亡无家可归的十五岁少年陈六子漂泊陌头,靠着要饭存活。但六子天子聪慧,机智灵活,时不时去听听说书,领会里面的天下。某个冬季,六子获得了饭馆伙计锁子叔的照顾,让六子感激了平生。冻得没法子的六子倒在了周村通和染坊门前,早晨出来扫雪的周掌柜,救下了六子,且把他以为义子,取名陈寿亭(侯勇 饰)。就这样,陈寿亭起头了在通和染坊的生活。时光荏苒,十年间,寿亭经过自己的勤恳和机智,熟练的把握了染坊的所怀孕手和事项,把通和染坊经营成了周村的最大染坊,引发了富翁染坊老板的觊觎。他想经过行贿把寿亭挖过来,寿亭却意志果断,连绑架他的匪贼都对他心生佩服。就这样,周村高低无人不知晓陈寿亭。
  大户卢家老爷看中了寿亭,想让其去青岛辅佐从德国归来学印染的儿子卢家驹(罗刚 饰)。寿亭是以走上了产业印染之路和创业之路……

  1. Video
  2. ID                             : 1
  3. Format                         : HEVC
  4. Format/Info                    : High Efficiency Video Coding
  5. Format profile                 : [email protected]@Main
  6. Codec ID                       : hev1
  7. Codec ID/Info                  : High Efficiency Video Coding
  8. Duration                       : 46 min 20 s
  9. Bit rate                       : 4 615 kb/s
  10. Width                          : 3 840 pixels
  11. Height                         : 2 132 pixels
  12. Display aspect ratio           : 16:9
  13. Original display aspect ratio  : 16:9
  14. Frame rate mode                : Constant
  15. Frame rate                     : 25.000 FPS
  16. Color space                    : YUV
  17. Chroma subsampling             : 4:2:0
  18. Bit depth                      : 8 bits
  19. Bits/(Pixel*Frame)             : 0.023
  20. Stream size                    : 1.49 GiB (96%)
  21. Codec configuration box        : hvcC

  22. Audio
  23. ID                             : 2
  24. Format                         : AAC LC
  25. Format/Info                    : Advanced Audio Codec Low Complexity
  26. Codec ID                       : mp4a-40-2
  27. Duration                       : 46 min 20 s
  28. Bit rate mode                  : Variable
  29. Bit rate                       : 192 kb/s
  30. Channel(s)                     : 2 channels
  31. Channel layout                 : L R
  32. Sampling rate                  : 44.1 kHz
  33. Frame rate                     : 43.066 FPS (1024 SPF)
  34. Compression mode               : Lossy
  35. Stream size                    : 62.8 MiB (4%)
  36. Default                        : Yes
  37. Alternate group                : 1
复制代码










回复

使用道具 举报

蓝光币
1967
发表于 2023-1-8 13:20:58 | 显示全部楼层
太好啦&萬分感謝版主的無私發佈分享%
回复 支持 反对

使用道具 举报

蓝光币
34
发表于 2023-1-8 18:58:16 | 显示全部楼层
这是重新编码的吧
回复 支持 反对

使用道具 举报

懒得打字嘛,点击右侧快捷回复 【右侧内容,后台自定义】
您需要登录后才可以回帖 登录 | 立即加入

本版积分规则

Archiver|小黑屋| 蓝光电影网 |网站地图

Copyright © 2021 Comsenz Inc. Powered by 蓝光电影网

蓝光电影网

本站内容由用户自主分享和转载自互联网,转载目的在于传递更多信息,并不代表本网赞同其观点和对其真实性负责。

如有侵权、违反国家法律政策行为,请联系我们,我们会第一时间及时清除和处理!

举报反馈邮箱:[email protected]

快速回复 返回顶部 返回列表