找回密码

蓝光电影网

查看: 65|回复: 0

[2160p-WEB] 爵士情未了[中文字幕].A.Jazzmans.Blues.2022.2160p.NF.WEB-DL.x265.10bit.HDR.DDP5.1.Atmos-JazzmansPink 16.84GB

[复制链接]
蓝光币
1080
发表于 2023-1-8 13:30:19 | 显示全部楼层 |阅读模式


◎标  题 爵士情未了
◎译  名 像爵士那样郁闷
◎片  名 A Jazzman's Blues
◎年  代 2022
◎产  地 美国
◎类  别 剧情
◎语  言 英语
◎上映日期 2022-09-10(多伦多电影节) / 2022-09-16(美国) / 2022-09-23(美国收集)
◎IMDb评分 8.1/10 (31人评价)
◎IMDb链接 https://www.imdb.com/title/tt14307536/
◎豆瓣链接 https://movie.douban.com/subject/36024621/
◎片  长 127分钟
◎导  演 泰勒·派瑞 Tyler Perry
◎编  剧 泰勒·派瑞 Tyler Perry
◎演  员 约书亚·布恩 Joshua Boone
       索莱亚·菲佛 Solea Pfeiffer
       阿米拉·万恩 Amirah Vann
       E·罗杰·米切尔 E. Roger Mitchell
       米拉娜·杰克逊 Milauna Jackson
       瑞安·艾戈尔德 Ryan Eggold
       布拉德·本尼迪克特 Brad Benedict
       劳伦·布格利里 Lauren Buglioli
       贝利·M·B Bailey MB
       布兰特·安东尼洛 Brent Antonello
       拉娜·扬 Lana Young
       Austin Scott Austin Scott
       莫内·门罗 Mone Monroe
       科迪·普莱斯利 Cody Pressley
       凯莉·戴维斯 Kelley Davis
        Michael Wayne Thomas
       罗伯特·史蒂文斯·韦恩 Robert Stevens Wayne
        Rickey Colbert
◎简  介
  Follows an investigation into an unsolved murder unveiling a story full of forbidden love, deceit and a secret.
  1. Video
  2. ID                                       : 1
  3. Format                                   : HEVC
  4. Format/Info                              : High Efficiency Video Coding
  5. Format profile                           : Main [email protected]@Main
  6. HDR format                               : Dolby Vision, Version 1.0, dvhe.08.06, BL+RPU, HDR10 compatible / SMPTE ST 2086, HDR10 compatible
  7. Codec ID                                 : V_MPEGH/ISO/HEVC
  8. Duration                                 : 2 h 7 min
  9. Bit rate                                 : 18.2 Mb/s
  10. Width                                    : 3 840 pixels
  11. Height                                   : 2 160 pixels
  12. Display aspect ratio                     : 16:9
  13. Frame rate mode                          : Constant
  14. Frame rate                               : 23.976 (24000/1001) FPS
  15. Color space                              : YUV
  16. Chroma subsampling                       : 4:2:0 (Type 2)
  17. Bit depth                                : 10 bits
  18. Bits/(Pixel*Frame)                       : 0.091
  19. Stream size                              : 16.1 GiB (96%)
  20. Language                                 : English
  21. Default                                  : Yes
  22. Forced                                   : No
  23. Color range                              : Limited
  24. Color primaries                          : BT.2020
  25. Transfer characteristics                 : PQ
  26. Matrix coefficients                      : BT.2020 non-constant
  27. Mastering display color primaries        : Display P3
  28. Mastering display luminance              : min: 0.0001 cd/m2, max: 1000 cd/m2
  29. Maximum Content Light Level              : 756 cd/m2
  30. Maximum Frame-Average Light Level        : 97 cd/m2
  31. Audio
  32. ID                                       : 2
  33. Format                                   : E-AC-3 JOC
  34. Format/Info                              : Enhanced AC-3 with Joint Object Coding
  35. Commercial name                          : Dolby Digital Plus with Dolby Atmos
  36. Codec ID                                 : A_EAC3
  37. Duration                                 : 2 h 8 min
  38. Bit rate mode                            : Constant
  39. Bit rate                                 : 768 kb/s
  40. Channel(s)                               : 6 channels
  41. Channel layout                           : L R C LFE Ls Rs
  42. Sampling rate                            : 48.0 kHz
  43. Frame rate                               : 31.250 FPS (1536 SPF)
  44. Compression mode                         : Lossy
  45. Stream size                              : 703 MiB (4%)
  46. Language                                 : English
  47. Service kind                             : Complete Main
  48. Default                                  : Yes
  49. Forced                                   : No
  50. Complexity index                         : 16
  51. Number of dynamic objects                : 15
  52. Bed channel count                        : 1 channel
  53. Bed channel configuration                : LFE
  54. Text #1
  55. ID                                       : 3
  56. Format                                   : UTF-8
  57. Codec ID                                 : S_TEXT/UTF8
  58. Codec ID/Info                            : UTF-8 Plain Text
  59. Duration                                 : 1 h 57 min
  60. Bit rate                                 : 57 b/s
  61. Frame rate                               : 0.218 FPS
  62. Count of elements                        : 1538
  63. Stream size                              : 49.5 KiB (0%)
  64. Language                                 : English
  65. Default                                  : No
  66. Forced                                   : No
  67. Text #2
  68. ID                                       : 4
  69. Format                                   : UTF-8
  70. Codec ID                                 : S_TEXT/UTF8
  71. Codec ID/Info                            : UTF-8 Plain Text
  72. Duration                                 : 2 h 6 min
  73. Bit rate                                 : 74 b/s
  74. Frame rate                               : 0.276 FPS
  75. Count of elements                        : 2093
  76. Stream size                              : 69.0 KiB (0%)
  77. Title                                    : SDH
  78. Language                                 : English
  79. Default                                  : No
  80. Forced                                   : No
  81. Text #3
  82. ID                                       : 5
  83. Format                                   : UTF-8
  84. Codec ID                                 : S_TEXT/UTF8
  85. Codec ID/Info                            : UTF-8 Plain Text
  86. Duration                                 : 2 h 6 min
  87. Bit rate                                 : 87 b/s
  88. Frame rate                               : 0.222 FPS
  89. Count of elements                        : 1684
  90. Stream size                              : 81.1 KiB (0%)
  91. Language                                 : Arabic
  92. Default                                  : No
  93. Forced                                   : No
  94. Text #4
  95. ID                                       : 6
  96. Format                                   : UTF-8
  97. Codec ID                                 : S_TEXT/UTF8
  98. Codec ID/Info                            : UTF-8 Plain Text
  99. Duration                                 : 2 h 6 min
  100. Bit rate                                 : 52 b/s
  101. Frame rate                               : 0.222 FPS
  102. Count of elements                        : 1682
  103. Stream size                              : 48.3 KiB (0%)
  104. Language                                 : Czech
  105. Default                                  : No
  106. Forced                                   : No
  107. Text #5
  108. ID                                       : 7
  109. Format                                   : UTF-8
  110. Codec ID                                 : S_TEXT/UTF8
  111. Codec ID/Info                            : UTF-8 Plain Text
  112. Duration                                 : 2 h 6 min
  113. Bit rate                                 : 49 b/s
  114. Frame rate                               : 0.205 FPS
  115. Count of elements                        : 1553
  116. Stream size                              : 45.7 KiB (0%)
  117. Language                                 : Danish
  118. Default                                  : No
  119. Forced                                   : No
  120. Text #6
  121. ID                                       : 8
  122. Format                                   : UTF-8
  123. Codec ID                                 : S_TEXT/UTF8
  124. Codec ID/Info                            : UTF-8 Plain Text
  125. Duration                                 : 2 h 6 min
  126. Bit rate                                 : 55 b/s
  127. Frame rate                               : 0.207 FPS
  128. Count of elements                        : 1567
  129. Stream size                              : 51.8 KiB (0%)
  130. Language                                 : German
  131. Default                                  : No
  132. Forced                                   : No
  133. Text #7
  134. ID                                       : 9
  135. Format                                   : UTF-8
  136. Codec ID                                 : S_TEXT/UTF8
  137. Codec ID/Info                            : UTF-8 Plain Text
  138. Duration                                 : 2 h 6 min
  139. Bit rate                                 : 67 b/s
  140. Frame rate                               : 0.233 FPS
  141. Count of elements                        : 1770
  142. Stream size                              : 62.9 KiB (0%)
  143. Language                                 : German
  144. Default                                  : No
  145. Forced                                   : No
  146. Text #8
  147. ID                                       : 10
  148. Format                                   : UTF-8
  149. Codec ID                                 : S_TEXT/UTF8
  150. Codec ID/Info                            : UTF-8 Plain Text
  151. Duration                                 : 2 h 6 min
  152. Bit rate                                 : 86 b/s
  153. Frame rate                               : 0.218 FPS
  154. Count of elements                        : 1657
  155. Stream size                              : 80.2 KiB (0%)
  156. Language                                 : Greek
  157. Default                                  : No
  158. Forced                                   : No
  159. Text #9
  160. ID                                       : 11
  161. Format                                   : UTF-8
  162. Codec ID                                 : S_TEXT/UTF8
  163. Codec ID/Info                            : UTF-8 Plain Text
  164. Duration                                 : 2 h 6 min
  165. Bit rate                                 : 52 b/s
  166. Frame rate                               : 0.204 FPS
  167. Count of elements                        : 1542
  168. Stream size                              : 48.6 KiB (0%)
  169. Title                                    : Latin American
  170. Language                                 : Spanish (Latin America)
  171. Default                                  : No
  172. Forced                                   : No
  173. Text #10
  174. ID                                       : 12
  175. Format                                   : UTF-8
  176. Codec ID                                 : S_TEXT/UTF8
  177. Codec ID/Info                            : UTF-8 Plain Text
  178. Duration                                 : 2 h 6 min
  179. Bit rate                                 : 49 b/s
  180. Frame rate                               : 0.219 FPS
  181. Count of elements                        : 1660
  182. Stream size                              : 46.2 KiB (0%)
  183. Title                                    : Latin American
  184. Language                                 : Spanish (Latin America)
  185. Default                                  : No
  186. Forced                                   : No
  187. Text #11
  188. ID                                       : 13
  189. Format                                   : UTF-8
  190. Codec ID                                 : S_TEXT/UTF8
  191. Codec ID/Info                            : UTF-8 Plain Text
  192. Duration                                 : 2 h 6 min
  193. Bit rate                                 : 48 b/s
  194. Frame rate                               : 0.222 FPS
  195. Count of elements                        : 1686
  196. Stream size                              : 44.7 KiB (0%)
  197. Language                                 : Spanish (ES)
  198. Default                                  : No
  199. Forced                                   : No
  200. Text #12
  201. ID                                       : 14
  202. Format                                   : UTF-8
  203. Codec ID                                 : S_TEXT/UTF8
  204. Codec ID/Info                            : UTF-8 Plain Text
  205. Duration                                 : 2 h 6 min
  206. Bit rate                                 : 50 b/s
  207. Frame rate                               : 0.191 FPS
  208. Count of elements                        : 1446
  209. Stream size                              : 46.5 KiB (0%)
  210. Language                                 : Finnish
  211. Default                                  : No
  212. Forced                                   : No
  213. Text #13
  214. ID                                       : 15
  215. Format                                   : UTF-8
  216. Codec ID                                 : S_TEXT/UTF8
  217. Codec ID/Info                            : UTF-8 Plain Text
  218. Duration                                 : 2 h 6 min
  219. Bit rate                                 : 50 b/s
  220. Frame rate                               : 0.222 FPS
  221. Count of elements                        : 1682
  222. Stream size                              : 46.3 KiB (0%)
  223. Language                                 : French
  224. Default                                  : No
  225. Forced                                   : No
  226. Text #14
  227. ID                                       : 16
  228. Format                                   : UTF-8
  229. Codec ID                                 : S_TEXT/UTF8
  230. Codec ID/Info                            : UTF-8 Plain Text
  231. Duration                                 : 2 h 6 min
  232. Bit rate                                 : 76 b/s
  233. Frame rate                               : 0.271 FPS
  234. Count of elements                        : 2059
  235. Stream size                              : 70.7 KiB (0%)
  236. Language                                 : French
  237. Default                                  : No
  238. Forced                                   : No
  239. Text #15
  240. ID                                       : 17
  241. Format                                   : UTF-8
  242. Codec ID                                 : S_TEXT/UTF8
  243. Codec ID/Info                            : UTF-8 Plain Text
  244. Duration                                 : 2 h 6 min
  245. Bit rate                                 : 84 b/s
  246. Frame rate                               : 0.221 FPS
  247. Count of elements                        : 1678
  248. Stream size                              : 78.1 KiB (0%)
  249. Language                                 : Hebrew
  250. Default                                  : No
  251. Forced                                   : No
  252. Text #16
  253. ID                                       : 18
  254. Format                                   : UTF-8
  255. Codec ID                                 : S_TEXT/UTF8
  256. Codec ID/Info                            : UTF-8 Plain Text
  257. Duration                                 : 2 h 6 min
  258. Bit rate                                 : 48 b/s
  259. Frame rate                               : 0.221 FPS
  260. Count of elements                        : 1675
  261. Stream size                              : 44.8 KiB (0%)
  262. Language                                 : Croatian
  263. Default                                  : No
  264. Forced                                   : No
  265. Text #17
  266. ID                                       : 19
  267. Format                                   : UTF-8
  268. Codec ID                                 : S_TEXT/UTF8
  269. Codec ID/Info                            : UTF-8 Plain Text
  270. Duration                                 : 2 h 6 min
  271. Bit rate                                 : 50 b/s
  272. Frame rate                               : 0.208 FPS
  273. Count of elements                        : 1580
  274. Stream size                              : 46.9 KiB (0%)
  275. Language                                 : Hungarian
  276. Default                                  : No
  277. Forced                                   : No
  278. Text #18
  279. ID                                       : 20
  280. Format                                   : UTF-8
  281. Codec ID                                 : S_TEXT/UTF8
  282. Codec ID/Info                            : UTF-8 Plain Text
  283. Duration                                 : 2 h 6 min
  284. Bit rate                                 : 54 b/s
  285. Frame rate                               : 0.213 FPS
  286. Count of elements                        : 1615
  287. Stream size                              : 50.1 KiB (0%)
  288. Language                                 : Indonesian
  289. Default                                  : No
  290. Forced                                   : No
  291. Text #19
  292. ID                                       : 21
  293. Format                                   : UTF-8
  294. Codec ID                                 : S_TEXT/UTF8
  295. Codec ID/Info                            : UTF-8 Plain Text
  296. Duration                                 : 2 h 6 min
  297. Bit rate                                 : 51 b/s
  298. Frame rate                               : 0.210 FPS
  299. Count of elements                        : 1591
  300. Stream size                              : 47.4 KiB (0%)
  301. Language                                 : Italian
  302. Default                                  : No
  303. Forced                                   : No
  304. Text #20
  305. ID                                       : 22
  306. Format                                   : UTF-8
  307. Codec ID                                 : S_TEXT/UTF8
  308. Codec ID/Info                            : UTF-8 Plain Text
  309. Duration                                 : 2 h 6 min
  310. Bit rate                                 : 55 b/s
  311. Frame rate                               : 0.225 FPS
  312. Count of elements                        : 1704
  313. Stream size                              : 51.7 KiB (0%)
  314. Language                                 : Japanese
  315. Default                                  : No
  316. Forced                                   : No
  317. Text #21
  318. ID                                       : 23
  319. Format                                   : UTF-8
  320. Codec ID                                 : S_TEXT/UTF8
  321. Codec ID/Info                            : UTF-8 Plain Text
  322. Duration                                 : 2 h 6 min
  323. Bit rate                                 : 59 b/s
  324. Frame rate                               : 0.223 FPS
  325. Count of elements                        : 1693
  326. Stream size                              : 55.5 KiB (0%)
  327. Language                                 : Korean
  328. Default                                  : No
  329. Forced                                   : No
  330. Text #22
  331. ID                                       : 24
  332. Format                                   : UTF-8
  333. Codec ID                                 : S_TEXT/UTF8
  334. Codec ID/Info                            : UTF-8 Plain Text
  335. Duration                                 : 1 h 58 min
  336. Bit rate                                 : 53 b/s
  337. Frame rate                               : 0.215 FPS
  338. Count of elements                        : 1537
  339. Stream size                              : 46.2 KiB (0%)
  340. Language                                 : Malay
  341. Default                                  : No
  342. Forced                                   : No
  343. Text #23
  344. ID                                       : 25
  345. Format                                   : UTF-8
  346. Codec ID                                 : S_TEXT/UTF8
  347. Codec ID/Info                            : UTF-8 Plain Text
  348. Duration                                 : 2 h 6 min
  349. Bit rate                                 : 52 b/s
  350. Frame rate                               : 0.204 FPS
  351. Count of elements                        : 1545
  352. Stream size                              : 48.5 KiB (0%)
  353. Language                                 : Norwegian Bokmal
  354. Default                                  : No
  355. Forced                                   : No
  356. Text #24
  357. ID                                       : 26
  358. Format                                   : UTF-8
  359. Codec ID                                 : S_TEXT/UTF8
  360. Codec ID/Info                            : UTF-8 Plain Text
  361. Duration                                 : 2 h 6 min
  362. Bit rate                                 : 50 b/s
  363. Frame rate                               : 0.214 FPS
  364. Count of elements                        : 1624
  365. Stream size                              : 47.0 KiB (0%)
  366. Language                                 : Dutch
  367. Default                                  : No
  368. Forced                                   : No
  369. Text #25
  370. ID                                       : 27
  371. Format                                   : UTF-8
  372. Codec ID                                 : S_TEXT/UTF8
  373. Codec ID/Info                            : UTF-8 Plain Text
  374. Duration                                 : 2 h 6 min
  375. Bit rate                                 : 45 b/s
  376. Frame rate                               : 0.217 FPS
  377. Count of elements                        : 1643
  378. Stream size                              : 42.0 KiB (0%)
  379. Language                                 : Polish
  380. Default                                  : No
  381. Forced                                   : No
  382. Text #26
  383. ID                                       : 28
  384. Format                                   : UTF-8
  385. Codec ID                                 : S_TEXT/UTF8
  386. Codec ID/Info                            : UTF-8 Plain Text
  387. Duration                                 : 1 h 57 min
  388. Bit rate                                 : 59 b/s
  389. Frame rate                               : 0.218 FPS
  390. Count of elements                        : 1539
  391. Stream size                              : 51.4 KiB (0%)
  392. Title                                    : Brazilian
  393. Language                                 : Portuguese (BR)
  394. Default                                  : No
  395. Forced                                   : No
  396. Text #27
  397. ID                                       : 29
  398. Format                                   : UTF-8
  399. Codec ID                                 : S_TEXT/UTF8
  400. Codec ID/Info                            : UTF-8 Plain Text
  401. Duration                                 : 2 h 6 min
  402. Bit rate                                 : 52 b/s
  403. Frame rate                               : 0.223 FPS
  404. Count of elements                        : 1689
  405. Stream size                              : 48.8 KiB (0%)
  406. Title                                    : Brazilian
  407. Language                                 : Portuguese (BR)
  408. Default                                  : No
  409. Forced                                   : No
  410. Text #28
  411. ID                                       : 30
  412. Format                                   : UTF-8
  413. Codec ID                                 : S_TEXT/UTF8
  414. Codec ID/Info                            : UTF-8 Plain Text
  415. Duration                                 : 2 h 6 min
  416. Bit rate                                 : 51 b/s
  417. Frame rate                               : 0.209 FPS
  418. Count of elements                        : 1588
  419. Stream size                              : 47.6 KiB (0%)
  420. Language                                 : Portuguese (PT)
  421. Default                                  : No
  422. Forced                                   : No
  423. Text #29
  424. ID                                       : 31
  425. Format                                   : UTF-8
  426. Codec ID                                 : S_TEXT/UTF8
  427. Codec ID/Info                            : UTF-8 Plain Text
  428. Duration                                 : 2 h 6 min
  429. Bit rate                                 : 58 b/s
  430. Frame rate                               : 0.197 FPS
  431. Count of elements                        : 1491
  432. Stream size                              : 53.8 KiB (0%)
  433. Language                                 : Romanian
  434. Default                                  : No
  435. Forced                                   : No
  436. Text #30
  437. ID                                       : 32
  438. Format                                   : UTF-8
  439. Codec ID                                 : S_TEXT/UTF8
  440. Codec ID/Info                            : UTF-8 Plain Text
  441. Duration                                 : 2 h 6 min
  442. Bit rate                                 : 82 b/s
  443. Frame rate                               : 0.217 FPS
  444. Count of elements                        : 1649
  445. Stream size                              : 76.5 KiB (0%)
  446. Language                                 : Russian
  447. Default                                  : No
  448. Forced                                   : No
  449. Text #31
  450. ID                                       : 33
  451. Format                                   : UTF-8
  452. Codec ID                                 : S_TEXT/UTF8
  453. Codec ID/Info                            : UTF-8 Plain Text
  454. Duration                                 : 2 h 6 min
  455. Bit rate                                 : 51 b/s
  456. Frame rate                               : 0.205 FPS
  457. Count of elements                        : 1554
  458. Stream size                              : 47.5 KiB (0%)
  459. Language                                 : Swedish
  460. Default                                  : No
  461. Forced                                   : No
  462. Text #32
  463. ID                                       : 34
  464. Format                                   : UTF-8
  465. Codec ID                                 : S_TEXT/UTF8
  466. Codec ID/Info                            : UTF-8 Plain Text
  467. Duration                                 : 2 h 6 min
  468. Bit rate                                 : 133 b/s
  469. Frame rate                               : 0.220 FPS
  470. Count of elements                        : 1667
  471. Stream size                              : 123 KiB (0%)
  472. Language                                 : Thai
  473. Default                                  : No
  474. Forced                                   : No
  475. Text #33
  476. ID                                       : 35
  477. Format                                   : UTF-8
  478. Codec ID                                 : S_TEXT/UTF8
  479. Codec ID/Info                            : UTF-8 Plain Text
  480. Duration                                 : 2 h 6 min
  481. Bit rate                                 : 52 b/s
  482. Frame rate                               : 0.219 FPS
  483. Count of elements                        : 1658
  484. Stream size                              : 48.4 KiB (0%)
  485. Language                                 : Turkish
  486. Default                                  : No
  487. Forced                                   : No
  488. Text #34
  489. ID                                       : 36
  490. Format                                   : UTF-8
  491. Codec ID                                 : S_TEXT/UTF8
  492. Codec ID/Info                            : UTF-8 Plain Text
  493. Duration                                 : 2 h 6 min
  494. Bit rate                                 : 83 b/s
  495. Frame rate                               : 0.218 FPS
  496. Count of elements                        : 1655
  497. Stream size                              : 77.5 KiB (0%)
  498. Language                                 : Ukrainian
  499. Default                                  : No
  500. Forced                                   : No
  501. Text #35
  502. ID                                       : 37
  503. Format                                   : UTF-8
  504. Codec ID                                 : S_TEXT/UTF8
  505. Codec ID/Info                            : UTF-8 Plain Text
  506. Duration                                 : 2 h 6 min
  507. Bit rate                                 : 76 b/s
  508. Frame rate                               : 0.202 FPS
  509. Count of elements                        : 1531
  510. Stream size                              : 71.2 KiB (0%)
  511. Language                                 : Vietnamese
  512. Default                                  : No
  513. Forced                                   : No
  514. Text #36
  515. ID                                       : 38
  516. Format                                   : UTF-8
  517. Codec ID                                 : S_TEXT/UTF8
  518. Codec ID/Info                            : UTF-8 Plain Text
  519. Duration                                 : 2 h 6 min
  520. Bit rate                                 : 55 b/s
  521. Frame rate                               : 0.220 FPS
  522. Count of elements                        : 1668
  523. Stream size                              : 51.4 KiB (0%)
  524. Title                                    : Simplified
  525. Language                                 : Chinese (Simplied)
  526. Default                                  : No
  527. Forced                                   : No
  528. Text #37
  529. ID                                       : 39
  530. Format                                   : UTF-8
  531. Codec ID                                 : S_TEXT/UTF8
  532. Codec ID/Info                            : UTF-8 Plain Text
  533. Duration                                 : 2 h 6 min
  534. Bit rate                                 : 54 b/s
  535. Frame rate                               : 0.223 FPS
  536. Count of elements                        : 1689
  537. Stream size                              : 50.8 KiB (0%)
  538. Title                                    : Traditional
  539. Language                                 : Chinese (Traditional)
  540. Default                                  : No
  541. Forced                                   : No
  542. Menu
  543. 02:00:44.000                             : en:End Credits
复制代码











回复

使用道具 举报

懒得打字嘛,点击右侧快捷回复 【右侧内容,后台自定义】
您需要登录后才可以回帖 登录 | 立即加入

本版积分规则

Archiver|小黑屋| 蓝光电影网 |网站地图

Copyright © 2021 Comsenz Inc. Powered by 蓝光电影网

蓝光电影网

本站内容由用户自主分享和转载自互联网,转载目的在于传递更多信息,并不代表本网赞同其观点和对其真实性负责。

如有侵权、违反国家法律政策行为,请联系我们,我们会第一时间及时清除和处理!

举报反馈邮箱:[email protected]

快速回复 返回顶部 返回列表