找回密码

蓝光电影网

查看: 121|回复: 0

[2160p-WEB] 宛如天堂[中文字幕].Just.Like.Heaven.2005.2160p.WEB-DL.x265.8bit.SDR.DDP5.1-NOGRP 10.14GB

[复制链接]
蓝光币
1171
发表于 2023-1-8 13:30:19 | 显示全部楼层 |阅读模式


◎标  题 好像天堂
◎译  名 出窍情人 / 天堂可人儿
◎片  名 Just Like Heaven
◎年  代 2005
◎产  地 美国
◎类  别 笑剧 / 恋爱 / 奇异
◎语  言 英语 / 汉语普通话
◎上映日期 2005-09-16(美国)
◎IMDb评分 6.7/10 (103422人评价)
◎IMDb链接 https://www.imdb.com/title/tt0425123/
◎豆瓣评分 7.2/10 (14339人评价)
◎豆瓣链接 https://movie.douban.com/subject/1421976/
◎片  长 95 分钟
◎导  演 马克·沃特斯 Mark Waters
◎编  剧 彼得·托兰 Peter Tolan
       莱斯利·迪克逊 Leslie Dixon
       马克·李维 Marc Levy
◎演  员 瑞茜·威瑟斯彭 Reese Witherspoon
       马克·鲁弗洛 Mark Ruffalo
       唐纳尔·罗格 Donal Logue
       迪娜·沃特斯 Dina Waters
       本·申克曼 Ben Shenkman
       乔恩·海德 Jon Heder
       伊万娜·米利塞维奇 Ivana Miličević
       卡罗琳·阿隆 Caroline Aaron
       赵家玲 Rosalind Chao
       罗恩·坎纳达 Ron Canada
       威利·加森 Willie Garson
       Shulie Cowen Shulie Cowen
       比利·贝克 Billy Beck
       Cristian Cruz Cristian Cruz
       凯萨琳·塔柏 Catherine Taber
       凯瑞斯·多西 Kerris Dorsey
       艾莉西亚·沙菲尔 Alyssa Shafer
       保罗·卡塞尔 Paul Cassell
       雷蒙德·奥康纳 Raymond O'Connor
       宋静秀 Lucille Soong
       乔尔·麦金农·米勒 Joel McKinnon Miller
       罗娜·斯科特 Lorna Scott
       杰夫·马库斯 Jeff Marcus
       肯·竹本 Ken Takemoto
       Jacob Chambers Jacob Chambers
       李伯恩 Lee Burns
       阿米塔·巴拉 Amita Balla
       提姆·康纳利 Tim Connolly
       肯·克拉克 Ken Clark
        Michael Longstreth
       Janean Christine Mariani Janean Christine Mariani
       詹姆斯·D·韦斯顿二世 James D. Weston II
       提姆·席特尔兹 Tim Sitarz
◎标  签 恋爱 / 美国 / 笑剧 / ReeseWitherspoon / 美国电影 / 好像天堂 / 2005 / 电影
◎简  介
    单身男人大卫(马克·鲁弗洛 Mark Ruffalo饰)为了忘记悲伤事,决议出租自己的公寓。怪事起头发生:一个叫伊丽莎白(瑞茜·威瑟斯彭 Reese Witherspoon饰)的姑娘闯入了大卫的生活,宣称这是她的屋子。                                                                      伊丽莎白似乎具有超乎凡人的才能,她能随时出现在各个地方,纠缠大卫逼他搬走。但是,她却不晓得这背后隐藏着一个残暴的究竟——实在伊丽莎白只是一具鬼魂。她生前是一个工作狂,在一场车祸中遇难。大卫请来驱鬼人,伊丽莎白渐渐知晓自己的身份。在这个进程中,大卫和伊丽莎白之间发生了人鬼之恋,伊丽莎白生前和大卫一段错过的缘分,陪伴着这段无果的爱情显得倍加欷歔。
  1. Video
  2. ID                                       : 1
  3. Format                                   : HEVC
  4. Format/Info                              : High Efficiency Video Coding
  5. Format profile                           : [email protected]@High
  6. Codec ID                                 : V_MPEGH/ISO/HEVC
  7. Duration                                 : 1 h 34 min
  8. Bit rate                                 : 14.7 Mb/s
  9. Width                                    : 3 840 pixels
  10. Height                                   : 2 160 pixels
  11. Display aspect ratio                     : 16:9
  12. Frame rate mode                          : Constant
  13. Frame rate                               : 23.976 (24000/1001) FPS
  14. Color space                              : YUV
  15. Chroma subsampling                       : 4:2:0
  16. Bit depth                                : 8 bits
  17. Bits/(Pixel*Frame)                       : 0.074
  18. Stream size                              : 9.70 GiB (96%)
  19. Default                                  : Yes
  20. Forced                                   : No
  21. Color range                              : Limited
  22. Color primaries                          : BT.709
  23. Transfer characteristics                 : BT.709
  24. Matrix coefficients                      : BT.709
  25. Audio
  26. ID                                       : 2
  27. Format                                   : E-AC-3
  28. Format/Info                              : Enhanced AC-3
  29. Commercial name                          : Dolby Digital Plus
  30. Codec ID                                 : A_EAC3
  31. Duration                                 : 1 h 36 min
  32. Bit rate mode                            : Constant
  33. Bit rate                                 : 640 kb/s
  34. Channel(s)                               : 6 channels
  35. Channel layout                           : L R C LFE Ls Rs
  36. Sampling rate                            : 48.0 kHz
  37. Frame rate                               : 31.250 FPS (1536 SPF)
  38. Compression mode                         : Lossy
  39. Delay relative to video                  : 1 s 900 ms
  40. Stream size                              : 440 MiB (4%)
  41. Title                                    : English
  42. Language                                 : English
  43. Service kind                             : Complete Main
  44. Default                                  : No
  45. Forced                                   : No
  46. Text #1
  47. ID                                       : 3
  48. Format                                   : UTF-8
  49. Codec ID                                 : S_TEXT/UTF8
  50. Codec ID/Info                            : UTF-8 Plain Text
  51. Duration                                 : 1 h 34 min
  52. Bit rate                                 : 82 b/s
  53. Frame rate                               : 0.306 FPS
  54. Count of elements                        : 1734
  55. Stream size                              : 57.3 KiB (0%)
  56. Title                                    : English
  57. Language                                 : English (US)
  58. Default                                  : Yes
  59. Forced                                   : No
  60. Text #2
  61. ID                                       : 4
  62. Format                                   : UTF-8
  63. Codec ID                                 : S_TEXT/UTF8
  64. Codec ID/Info                            : UTF-8 Plain Text
  65. Duration                                 : 1 h 29 min
  66. Bit rate                                 : 104 b/s
  67. Frame rate                               : 0.281 FPS
  68. Count of elements                        : 1510
  69. Stream size                              : 68.2 KiB (0%)
  70. Title                                    : Arabic
  71. Language                                 : Arabic (001)
  72. Default                                  : No
  73. Forced                                   : No
  74. Text #3
  75. ID                                       : 5
  76. Format                                   : UTF-8
  77. Codec ID                                 : S_TEXT/UTF8
  78. Codec ID/Info                            : UTF-8 Plain Text
  79. Duration                                 : 1 h 29 min
  80. Bit rate                                 : 67 b/s
  81. Frame rate                               : 0.273 FPS
  82. Count of elements                        : 1463
  83. Stream size                              : 44.1 KiB (0%)
  84. Title                                    : Danish
  85. Language                                 : Danish (DK)
  86. Default                                  : No
  87. Forced                                   : No
  88. Text #4
  89. ID                                       : 6
  90. Format                                   : UTF-8
  91. Codec ID                                 : S_TEXT/UTF8
  92. Codec ID/Info                            : UTF-8 Plain Text
  93. Duration                                 : 1 h 29 min
  94. Bit rate                                 : 84 b/s
  95. Frame rate                               : 0.299 FPS
  96. Count of elements                        : 1607
  97. Stream size                              : 55.1 KiB (0%)
  98. Title                                    : German
  99. Language                                 : German (DE)
  100. Default                                  : No
  101. Forced                                   : No
  102. Text #5
  103. ID                                       : 7
  104. Format                                   : UTF-8
  105. Codec ID                                 : S_TEXT/UTF8
  106. Codec ID/Info                            : UTF-8 Plain Text
  107. Duration                                 : 1 h 29 min
  108. Bit rate                                 : 75 b/s
  109. Frame rate                               : 0.284 FPS
  110. Count of elements                        : 1518
  111. Stream size                              : 49.5 KiB (0%)
  112. Title                                    : Spanish
  113. Language                                 : Spanish (ES)
  114. Default                                  : No
  115. Forced                                   : No
  116. Text #6
  117. ID                                       : 8
  118. Format                                   : UTF-8
  119. Codec ID                                 : S_TEXT/UTF8
  120. Codec ID/Info                            : UTF-8 Plain Text
  121. Duration                                 : 1 h 29 min
  122. Bit rate                                 : 71 b/s
  123. Frame rate                               : 0.278 FPS
  124. Count of elements                        : 1492
  125. Stream size                              : 46.8 KiB (0%)
  126. Title                                    : Spanish (Latin America)
  127. Language                                 : Spanish (Latin America)
  128. Default                                  : No
  129. Forced                                   : No
  130. Text #7
  131. ID                                       : 9
  132. Format                                   : UTF-8
  133. Codec ID                                 : S_TEXT/UTF8
  134. Codec ID/Info                            : UTF-8 Plain Text
  135. Duration                                 : 1 h 29 min
  136. Bit rate                                 : 54 b/s
  137. Frame rate                               : 0.266 FPS
  138. Count of elements                        : 1429
  139. Stream size                              : 35.8 KiB (0%)
  140. Title                                    : Finnish
  141. Language                                 : Finnish (FI)
  142. Default                                  : No
  143. Forced                                   : No
  144. Text #8
  145. ID                                       : 10
  146. Format                                   : UTF-8
  147. Codec ID                                 : S_TEXT/UTF8
  148. Codec ID/Info                            : UTF-8 Plain Text
  149. Duration                                 : 1 h 29 min
  150. Bit rate                                 : 64 b/s
  151. Frame rate                               : 0.267 FPS
  152. Count of elements                        : 1433
  153. Stream size                              : 42.4 KiB (0%)
  154. Title                                    : French
  155. Language                                 : French (FR)
  156. Default                                  : No
  157. Forced                                   : No
  158. Text #9
  159. ID                                       : 11
  160. Format                                   : UTF-8
  161. Codec ID                                 : S_TEXT/UTF8
  162. Codec ID/Info                            : UTF-8 Plain Text
  163. Duration                                 : 1 h 33 min
  164. Bit rate                                 : 93 b/s
  165. Frame rate                               : 0.272 FPS
  166. Count of elements                        : 1524
  167. Stream size                              : 63.9 KiB (0%)
  168. Title                                    : Hebrew
  169. Language                                 : Hebrew (IL)
  170. Default                                  : No
  171. Forced                                   : No
  172. Text #10
  173. ID                                       : 12
  174. Format                                   : UTF-8
  175. Codec ID                                 : S_TEXT/UTF8
  176. Codec ID/Info                            : UTF-8 Plain Text
  177. Duration                                 : 1 h 33 min
  178. Bit rate                                 : 181 b/s
  179. Frame rate                               : 0.278 FPS
  180. Count of elements                        : 1565
  181. Stream size                              : 125 KiB (0%)
  182. Title                                    : Hindi
  183. Language                                 : Hindi (IN)
  184. Default                                  : No
  185. Forced                                   : No
  186. Text #11
  187. ID                                       : 13
  188. Format                                   : UTF-8
  189. Codec ID                                 : S_TEXT/UTF8
  190. Codec ID/Info                            : UTF-8 Plain Text
  191. Duration                                 : 1 h 29 min
  192. Bit rate                                 : 62 b/s
  193. Frame rate                               : 0.286 FPS
  194. Count of elements                        : 1529
  195. Stream size                              : 40.9 KiB (0%)
  196. Title                                    : Indonesian
  197. Language                                 : Indonesian (ID)
  198. Default                                  : No
  199. Forced                                   : No
  200. Text #12
  201. ID                                       : 14
  202. Format                                   : UTF-8
  203. Codec ID                                 : S_TEXT/UTF8
  204. Codec ID/Info                            : UTF-8 Plain Text
  205. Duration                                 : 1 h 29 min
  206. Bit rate                                 : 72 b/s
  207. Frame rate                               : 0.284 FPS
  208. Count of elements                        : 1522
  209. Stream size                              : 47.2 KiB (0%)
  210. Title                                    : Italian
  211. Language                                 : Italian (IT)
  212. Default                                  : No
  213. Forced                                   : No
  214. Text #13
  215. ID                                       : 15
  216. Format                                   : UTF-8
  217. Codec ID                                 : S_TEXT/UTF8
  218. Codec ID/Info                            : UTF-8 Plain Text
  219. Duration                                 : 1 h 29 min
  220. Bit rate                                 : 61 b/s
  221. Frame rate                               : 0.274 FPS
  222. Count of elements                        : 1465
  223. Stream size                              : 40.5 KiB (0%)
  224. Title                                    : Japanese
  225. Language                                 : Japanese (JP)
  226. Default                                  : No
  227. Forced                                   : No
  228. Text #14
  229. ID                                       : 16
  230. Format                                   : UTF-8
  231. Codec ID                                 : S_TEXT/UTF8
  232. Codec ID/Info                            : UTF-8 Plain Text
  233. Duration                                 : 1 h 34 min
  234. Bit rate                                 : 89 b/s
  235. Frame rate                               : 0.279 FPS
  236. Count of elements                        : 1571
  237. Stream size                              : 61.7 KiB (0%)
  238. Title                                    : Korean
  239. Language                                 : Korean (KP)
  240. Default                                  : No
  241. Forced                                   : No
  242. Text #15
  243. ID                                       : 17
  244. Format                                   : UTF-8
  245. Codec ID                                 : S_TEXT/UTF8
  246. Codec ID/Info                            : UTF-8 Plain Text
  247. Duration                                 : 1 h 29 min
  248. Bit rate                                 : 60 b/s
  249. Frame rate                               : 0.194 FPS
  250. Count of elements                        : 1039
  251. Stream size                              : 39.2 KiB (0%)
  252. Title                                    : Dutch
  253. Language                                 : Dutch (NL)
  254. Default                                  : No
  255. Forced                                   : No
  256. Text #16
  257. ID                                       : 18
  258. Format                                   : UTF-8
  259. Codec ID                                 : S_TEXT/UTF8
  260. Codec ID/Info                            : UTF-8 Plain Text
  261. Duration                                 : 1 h 29 min
  262. Bit rate                                 : 57 b/s
  263. Frame rate                               : 0.232 FPS
  264. Count of elements                        : 1239
  265. Stream size                              : 37.5 KiB (0%)
  266. Title                                    : Norwegian
  267. Language                                 : Norwegian (NO)
  268. Default                                  : No
  269. Forced                                   : No
  270. Text #17
  271. ID                                       : 19
  272. Format                                   : UTF-8
  273. Codec ID                                 : S_TEXT/UTF8
  274. Codec ID/Info                            : UTF-8 Plain Text
  275. Duration                                 : 1 h 29 min
  276. Bit rate                                 : 70 b/s
  277. Frame rate                               : 0.284 FPS
  278. Count of elements                        : 1526
  279. Stream size                              : 45.9 KiB (0%)
  280. Title                                    : Polish
  281. Language                                 : Polish (PL)
  282. Default                                  : No
  283. Forced                                   : No
  284. Text #18
  285. ID                                       : 20
  286. Format                                   : UTF-8
  287. Codec ID                                 : S_TEXT/UTF8
  288. Codec ID/Info                            : UTF-8 Plain Text
  289. Duration                                 : 1 h 29 min
  290. Bit rate                                 : 67 b/s
  291. Frame rate                               : 0.280 FPS
  292. Count of elements                        : 1502
  293. Stream size                              : 44.0 KiB (0%)
  294. Title                                    : Portuguese
  295. Language                                 : Portuguese (PT)
  296. Default                                  : No
  297. Forced                                   : No
  298. Text #19
  299. ID                                       : 21
  300. Format                                   : UTF-8
  301. Codec ID                                 : S_TEXT/UTF8
  302. Codec ID/Info                            : UTF-8 Plain Text
  303. Duration                                 : 1 h 29 min
  304. Bit rate                                 : 123 b/s
  305. Frame rate                               : 0.290 FPS
  306. Count of elements                        : 1555
  307. Stream size                              : 81.1 KiB (0%)
  308. Title                                    : Russian
  309. Language                                 : Russian (RU)
  310. Default                                  : No
  311. Forced                                   : No
  312. Text #20
  313. ID                                       : 22
  314. Format                                   : UTF-8
  315. Codec ID                                 : S_TEXT/UTF8
  316. Codec ID/Info                            : UTF-8 Plain Text
  317. Duration                                 : 1 h 29 min
  318. Bit rate                                 : 66 b/s
  319. Frame rate                               : 0.265 FPS
  320. Count of elements                        : 1415
  321. Stream size                              : 43.5 KiB (0%)
  322. Title                                    : Swedish
  323. Language                                 : Swedish (SE)
  324. Default                                  : No
  325. Forced                                   : No
  326. Text #21
  327. ID                                       : 23
  328. Format                                   : UTF-8
  329. Codec ID                                 : S_TEXT/UTF8
  330. Codec ID/Info                            : UTF-8 Plain Text
  331. Duration                                 : 1 h 29 min
  332. Bit rate                                 : 286 b/s
  333. Frame rate                               : 0.335 FPS
  334. Count of elements                        : 1794
  335. Stream size                              : 187 KiB (0%)
  336. Title                                    : Tamil
  337. Language                                 : Tamil (IN)
  338. Default                                  : No
  339. Forced                                   : No
  340. Text #22
  341. ID                                       : 24
  342. Format                                   : UTF-8
  343. Codec ID                                 : S_TEXT/UTF8
  344. Codec ID/Info                            : UTF-8 Plain Text
  345. Duration                                 : 1 h 29 min
  346. Bit rate                                 : 243 b/s
  347. Frame rate                               : 0.312 FPS
  348. Count of elements                        : 1672
  349. Stream size                              : 159 KiB (0%)
  350. Title                                    : Telugu
  351. Language                                 : Telugu (IN)
  352. Default                                  : No
  353. Forced                                   : No
  354. Text #23
  355. ID                                       : 25
  356. Format                                   : UTF-8
  357. Codec ID                                 : S_TEXT/UTF8
  358. Codec ID/Info                            : UTF-8 Plain Text
  359. Duration                                 : 1 h 29 min
  360. Bit rate                                 : 182 b/s
  361. Frame rate                               : 0.283 FPS
  362. Count of elements                        : 1517
  363. Stream size                              : 120 KiB (0%)
  364. Title                                    : Thai
  365. Language                                 : Thai (TH)
  366. Default                                  : No
  367. Forced                                   : No
  368. Text #24
  369. ID                                       : 26
  370. Format                                   : UTF-8
  371. Codec ID                                 : S_TEXT/UTF8
  372. Codec ID/Info                            : UTF-8 Plain Text
  373. Duration                                 : 1 h 29 min
  374. Bit rate                                 : 78 b/s
  375. Frame rate                               : 0.285 FPS
  376. Count of elements                        : 1531
  377. Stream size                              : 51.2 KiB (0%)
  378. Title                                    : Turkish
  379. Language                                 : Turkish (TR)
  380. Default                                  : No
  381. Forced                                   : No
  382. Text #25
  383. ID                                       : 27
  384. Format                                   : UTF-8
  385. Codec ID                                 : S_TEXT/UTF8
  386. Codec ID/Info                            : UTF-8 Plain Text
  387. Duration                                 : 1 h 29 min
  388. Bit rate                                 : 60 b/s
  389. Frame rate                               : 0.283 FPS
  390. Count of elements                        : 1516
  391. Stream size                              : 39.9 KiB (0%)
  392. Title                                    : Chinese (Simplified)
  393. Language                                 : Chinese (Simplied)
  394. Default                                  : No
  395. Forced                                   : No
  396. Text #26
  397. ID                                       : 28
  398. Format                                   : UTF-8
  399. Codec ID                                 : S_TEXT/UTF8
  400. Codec ID/Info                            : UTF-8 Plain Text
  401. Duration                                 : 1 h 29 min
  402. Bit rate                                 : 61 b/s
  403. Frame rate                               : 0.282 FPS
  404. Count of elements                        : 1514
  405. Stream size                              : 40.0 KiB (0%)
  406. Title                                    : Chinese (Traditional)
  407. Language                                 : Chinese (Traditional)
  408. Default                                  : No
  409. Forced                                   : No
复制代码











回复

使用道具 举报

懒得打字嘛,点击右侧快捷回复 【右侧内容,后台自定义】
您需要登录后才可以回帖 登录 | 立即加入

本版积分规则

Archiver|小黑屋| 蓝光电影网 |网站地图

Copyright © 2021 Comsenz Inc. Powered by 蓝光电影网

蓝光电影网

本站内容由用户自主分享和转载自互联网,转载目的在于传递更多信息,并不代表本网赞同其观点和对其真实性负责。

如有侵权、违反国家法律政策行为,请联系我们,我们会第一时间及时清除和处理!

举报反馈邮箱:[email protected]

快速回复 返回顶部 返回列表