找回密码

蓝光电影网

查看: 249|回复: 2

[2160p-WEB] 血光假期[中文字幕].The.Weekend.Away.2022.2160p.NF.WEB-DL.x265.10bit.HDR.DDP5.1.Atmos-CM 7.79GB

[复制链接]
蓝光币
1082
发表于 2023-1-8 13:30:22 | 显示全部楼层 |阅读模式


◎标  题 血光假期
◎译  名 周末已逝 / 变调假期(港 / 台)
◎片  名 The Weekend Away
◎年  代 2022
◎产  地 美国
◎类  别 惊悚
◎语  言 英语
◎上映日期 2022-03-03(美国收集)
◎IMDb评分 5.6/10 (19852人评价)
◎IMDb链接 https://www.imdb.com/title/tt14817272/
◎豆瓣评分 5.7/10 (2919人评价)
◎豆瓣链接 https://movie.douban.com/subject/35491291/
◎片  长 89分钟
◎导  演 金·法伦特 Kim Farrant
◎演  员 莉顿·梅斯特 Leighton Meester
       卢克·诺里斯 Luke Norris
       克里斯蒂娜·沃尔夫 Christina Wolfe
       兹亚德·巴克里 Ziad Bakri
       阿马尔·布克维奇 Amar Bukvic
◎简  介
  一位女子(莉顿·梅斯特饰)周末到克罗地亚度假,没想到这却出了岔子:她被控告杀戮了自己最好的朋友(克里斯蒂娜·乌尔夫斯帕尔饰),并在试图弄清真相的进程中领会到一个使人疾苦的奥秘。
  1. Video
  2. ID                                       : 1
  3. Format                                   : HEVC
  4. Format/Info                              : High Efficiency Video Coding
  5. Format profile                           : Main [email protected]@Main
  6. HDR format                               : SMPTE ST 2086, HDR10 compatible
  7. Codec ID                                 : V_MPEGH/ISO/HEVC
  8. Duration                                 : 1 h 29 min
  9. Bit rate                                 : 11.6 Mb/s
  10. Width                                    : 3 840 pixels
  11. Height                                   : 2 160 pixels
  12. Display aspect ratio                     : 16:9
  13. Frame rate mode                          : Constant
  14. Frame rate                               : 24.000 FPS
  15. Color space                              : YUV
  16. Chroma subsampling                       : 4:2:0 (Type 2)
  17. Bit depth                                : 10 bits
  18. Bits/(Pixel*Frame)                       : 0.058
  19. Stream size                              : 7.29 GiB (94%)
  20. Default                                  : Yes
  21. Forced                                   : No
  22. Color range                              : Limited
  23. Color primaries                          : BT.2020
  24. Transfer characteristics                 : PQ
  25. Matrix coefficients                      : BT.2020 non-constant
  26. Mastering display color primaries        : Display P3
  27. Mastering display luminance              : min: 0.0001 cd/m2, max: 1000 cd/m2
  28. Maximum Content Light Level              : 847 cd/m2
  29. Maximum Frame-Average Light Level        : 181 cd/m2
  30. Audio
  31. ID                                       : 2
  32. Format                                   : E-AC-3 JOC
  33. Format/Info                              : Enhanced AC-3 with Joint Object Coding
  34. Commercial name                          : Dolby Digital Plus with Dolby Atmos
  35. Codec ID                                 : A_EAC3
  36. Duration                                 : 1 h 31 min
  37. Bit rate mode                            : Constant
  38. Bit rate                                 : 768 kb/s
  39. Channel(s)                               : 6 channels
  40. Channel layout                           : L R C LFE Ls Rs
  41. Sampling rate                            : 48.0 kHz
  42. Frame rate                               : 31.250 FPS (1536 SPF)
  43. Compression mode                         : Lossy
  44. Stream size                              : 501 MiB (6%)
  45. Title                                    : English
  46. Language                                 : English
  47. Service kind                             : Complete Main
  48. Default                                  : No
  49. Forced                                   : No
  50. Complexity index                         : 16
  51. Number of dynamic objects                : 15
  52. Bed channel count                        : 1 channel
  53. Bed channel configuration                : LFE
  54. Text #1
  55. ID                                       : 3
  56. Format                                   : UTF-8
  57. Codec ID                                 : S_TEXT/UTF8
  58. Codec ID/Info                            : UTF-8 Plain Text
  59. Duration                                 : 1 h 29 min
  60. Bit rate                                 : 89 b/s
  61. Frame rate                               : 0.211 FPS
  62. Count of elements                        : 1131
  63. Stream size                              : 58.4 KiB (0%)
  64. Title                                    : Arabic
  65. Language                                 : Arabic
  66. Default                                  : No
  67. Forced                                   : No
  68. Text #2
  69. ID                                       : 4
  70. Format                                   : UTF-8
  71. Codec ID                                 : S_TEXT/UTF8
  72. Codec ID/Info                            : UTF-8 Plain Text
  73. Duration                                 : 1 h 29 min
  74. Bit rate                                 : 53 b/s
  75. Frame rate                               : 0.217 FPS
  76. Count of elements                        : 1161
  77. Stream size                              : 34.8 KiB (0%)
  78. Title                                    : Chinese Simplified
  79. Language                                 : Chinese
  80. Default                                  : No
  81. Forced                                   : No
  82. Text #3
  83. ID                                       : 5
  84. Format                                   : UTF-8
  85. Codec ID                                 : S_TEXT/UTF8
  86. Codec ID/Info                            : UTF-8 Plain Text
  87. Duration                                 : 1 h 29 min
  88. Bit rate                                 : 50 b/s
  89. Frame rate                               : 0.229 FPS
  90. Count of elements                        : 1226
  91. Stream size                              : 32.9 KiB (0%)
  92. Title                                    : Chinese Traditional
  93. Language                                 : Chinese
  94. Default                                  : No
  95. Forced                                   : No
  96. Text #4
  97. ID                                       : 6
  98. Format                                   : UTF-8
  99. Codec ID                                 : S_TEXT/UTF8
  100. Codec ID/Info                            : UTF-8 Plain Text
  101. Duration                                 : 1 h 24 min
  102. Bit rate                                 : 45 b/s
  103. Frame rate                               : 0.187 FPS
  104. Count of elements                        : 954
  105. Stream size                              : 28.0 KiB (0%)
  106. Title                                    : Czech
  107. Language                                 : Czech
  108. Default                                  : No
  109. Forced                                   : No
  110. Text #5
  111. ID                                       : 7
  112. Format                                   : UTF-8
  113. Codec ID                                 : S_TEXT/UTF8
  114. Codec ID/Info                            : UTF-8 Plain Text
  115. Duration                                 : 1 h 29 min
  116. Bit rate                                 : 45 b/s
  117. Frame rate                               : 0.203 FPS
  118. Count of elements                        : 1088
  119. Stream size                              : 29.5 KiB (0%)
  120. Title                                    : Danish
  121. Language                                 : Danish
  122. Default                                  : No
  123. Forced                                   : No
  124. Text #6
  125. ID                                       : 8
  126. Format                                   : UTF-8
  127. Codec ID                                 : S_TEXT/UTF8
  128. Codec ID/Info                            : UTF-8 Plain Text
  129. Duration                                 : 1 h 29 min
  130. Bit rate                                 : 43 b/s
  131. Frame rate                               : 0.173 FPS
  132. Count of elements                        : 927
  133. Stream size                              : 28.3 KiB (0%)
  134. Title                                    : Dutch
  135. Language                                 : Dutch
  136. Default                                  : No
  137. Forced                                   : No
  138. Text #7
  139. ID                                       : 9
  140. Format                                   : UTF-8
  141. Codec ID                                 : S_TEXT/UTF8
  142. Codec ID/Info                            : UTF-8 Plain Text
  143. Duration                                 : 1 h 28 min
  144. Bit rate                                 : 63 b/s
  145. Frame rate                               : 0.276 FPS
  146. Count of elements                        : 1474
  147. Stream size                              : 41.5 KiB (0%)
  148. Title                                    : English [SDH]
  149. Language                                 : English
  150. Default                                  : No
  151. Forced                                   : No
  152. Text #8
  153. ID                                       : 10
  154. Format                                   : UTF-8
  155. Codec ID                                 : S_TEXT/UTF8
  156. Codec ID/Info                            : UTF-8 Plain Text
  157. Duration                                 : 58 min 25 s
  158. Bit rate                                 : 1 b/s
  159. Frame rate                               : 0.005 FPS
  160. Count of elements                        : 16
  161. Stream size                              : 491 Bytes (0%)
  162. Title                                    : English [Forced]
  163. Language                                 : English
  164. Default                                  : No
  165. Forced                                   : Yes
  166. Text #9
  167. ID                                       : 11
  168. Format                                   : UTF-8
  169. Codec ID                                 : S_TEXT/UTF8
  170. Codec ID/Info                            : UTF-8 Plain Text
  171. Duration                                 : 1 h 23 min
  172. Bit rate                                 : 54 b/s
  173. Frame rate                               : 0.231 FPS
  174. Count of elements                        : 1151
  175. Stream size                              : 32.9 KiB (0%)
  176. Title                                    : English
  177. Language                                 : English
  178. Default                                  : No
  179. Forced                                   : No
  180. Text #10
  181. ID                                       : 12
  182. Format                                   : UTF-8
  183. Codec ID                                 : S_TEXT/UTF8
  184. Codec ID/Info                            : UTF-8 Plain Text
  185. Duration                                 : 1 h 29 min
  186. Bit rate                                 : 42 b/s
  187. Frame rate                               : 0.170 FPS
  188. Count of elements                        : 912
  189. Stream size                              : 28.1 KiB (0%)
  190. Title                                    : Finnish
  191. Language                                 : Finnish
  192. Default                                  : No
  193. Forced                                   : No
  194. Text #11
  195. ID                                       : 13
  196. Format                                   : UTF-8
  197. Codec ID                                 : S_TEXT/UTF8
  198. Codec ID/Info                            : UTF-8 Plain Text
  199. Duration                                 : 1 h 29 min
  200. Bit rate                                 : 45 b/s
  201. Frame rate                               : 0.198 FPS
  202. Count of elements                        : 1059
  203. Stream size                              : 30.0 KiB (0%)
  204. Title                                    : French
  205. Language                                 : French
  206. Default                                  : No
  207. Forced                                   : No
  208. Text #12
  209. ID                                       : 14
  210. Format                                   : UTF-8
  211. Codec ID                                 : S_TEXT/UTF8
  212. Codec ID/Info                            : UTF-8 Plain Text
  213. Duration                                 : 1 h 29 min
  214. Bit rate                                 : 43 b/s
  215. Frame rate                               : 0.204 FPS
  216. Count of elements                        : 1094
  217. Stream size                              : 28.7 KiB (0%)
  218. Title                                    : German
  219. Language                                 : German
  220. Default                                  : No
  221. Forced                                   : No
  222. Text #13
  223. ID                                       : 15
  224. Format                                   : UTF-8
  225. Codec ID                                 : S_TEXT/UTF8
  226. Codec ID/Info                            : UTF-8 Plain Text
  227. Duration                                 : 1 h 29 min
  228. Bit rate                                 : 77 b/s
  229. Frame rate                               : 0.210 FPS
  230. Count of elements                        : 1122
  231. Stream size                              : 50.6 KiB (0%)
  232. Title                                    : Greek
  233. Language                                 : Greek
  234. Default                                  : No
  235. Forced                                   : No
  236. Text #14
  237. ID                                       : 16
  238. Format                                   : UTF-8
  239. Codec ID                                 : S_TEXT/UTF8
  240. Codec ID/Info                            : UTF-8 Plain Text
  241. Duration                                 : 1 h 29 min
  242. Bit rate                                 : 75 b/s
  243. Frame rate                               : 0.214 FPS
  244. Count of elements                        : 1145
  245. Stream size                              : 49.5 KiB (0%)
  246. Title                                    : Hebrew
  247. Language                                 : Hebrew
  248. Default                                  : No
  249. Forced                                   : No
  250. Text #15
  251. ID                                       : 17
  252. Format                                   : UTF-8
  253. Codec ID                                 : S_TEXT/UTF8
  254. Codec ID/Info                            : UTF-8 Plain Text
  255. Duration                                 : 1 h 29 min
  256. Bit rate                                 : 43 b/s
  257. Frame rate                               : 0.203 FPS
  258. Count of elements                        : 1088
  259. Stream size                              : 28.7 KiB (0%)
  260. Title                                    : Croatian
  261. Language                                 : Croatian
  262. Default                                  : No
  263. Forced                                   : No
  264. Text #16
  265. ID                                       : 18
  266. Format                                   : UTF-8
  267. Codec ID                                 : S_TEXT/UTF8
  268. Codec ID/Info                            : UTF-8 Plain Text
  269. Duration                                 : 1 h 29 min
  270. Bit rate                                 : 46 b/s
  271. Frame rate                               : 0.204 FPS
  272. Count of elements                        : 1090
  273. Stream size                              : 30.6 KiB (0%)
  274. Title                                    : Hungarian
  275. Language                                 : Hungarian
  276. Default                                  : No
  277. Forced                                   : No
  278. Text #17
  279. ID                                       : 19
  280. Format                                   : UTF-8
  281. Codec ID                                 : S_TEXT/UTF8
  282. Codec ID/Info                            : UTF-8 Plain Text
  283. Duration                                 : 1 h 29 min
  284. Bit rate                                 : 47 b/s
  285. Frame rate                               : 0.213 FPS
  286. Count of elements                        : 1139
  287. Stream size                              : 31.0 KiB (0%)
  288. Title                                    : Indonesian
  289. Language                                 : Indonesian
  290. Default                                  : No
  291. Forced                                   : No
  292. Text #18
  293. ID                                       : 20
  294. Format                                   : UTF-8
  295. Codec ID                                 : S_TEXT/UTF8
  296. Codec ID/Info                            : UTF-8 Plain Text
  297. Duration                                 : 1 h 29 min
  298. Bit rate                                 : 46 b/s
  299. Frame rate                               : 0.211 FPS
  300. Count of elements                        : 1131
  301. Stream size                              : 30.2 KiB (0%)
  302. Title                                    : Italian
  303. Language                                 : Italian
  304. Default                                  : No
  305. Forced                                   : No
  306. Text #19
  307. ID                                       : 21
  308. Format                                   : UTF-8
  309. Codec ID                                 : S_TEXT/UTF8
  310. Codec ID/Info                            : UTF-8 Plain Text
  311. Duration                                 : 1 h 29 min
  312. Bit rate                                 : 53 b/s
  313. Frame rate                               : 0.234 FPS
  314. Count of elements                        : 1251
  315. Stream size                              : 34.7 KiB (0%)
  316. Title                                    : Japanese
  317. Language                                 : Japanese
  318. Default                                  : No
  319. Forced                                   : No
  320. Text #20
  321. ID                                       : 22
  322. Format                                   : UTF-8
  323. Codec ID                                 : S_TEXT/UTF8
  324. Codec ID/Info                            : UTF-8 Plain Text
  325. Duration                                 : 1 h 29 min
  326. Bit rate                                 : 61 b/s
  327. Frame rate                               : 0.216 FPS
  328. Count of elements                        : 1157
  329. Stream size                              : 40.3 KiB (0%)
  330. Title                                    : Korean
  331. Language                                 : Korean
  332. Default                                  : No
  333. Forced                                   : No
  334. Text #21
  335. ID                                       : 23
  336. Format                                   : UTF-8
  337. Codec ID                                 : S_TEXT/UTF8
  338. Codec ID/Info                            : UTF-8 Plain Text
  339. Duration                                 : 1 h 29 min
  340. Bit rate                                 : 44 b/s
  341. Frame rate                               : 0.209 FPS
  342. Count of elements                        : 1119
  343. Stream size                              : 29.4 KiB (0%)
  344. Title                                    : Malay
  345. Language                                 : Malay
  346. Default                                  : No
  347. Forced                                   : No
  348. Text #22
  349. ID                                       : 24
  350. Format                                   : UTF-8
  351. Codec ID                                 : S_TEXT/UTF8
  352. Codec ID/Info                            : UTF-8 Plain Text
  353. Duration                                 : 1 h 29 min
  354. Bit rate                                 : 44 b/s
  355. Frame rate                               : 0.198 FPS
  356. Count of elements                        : 1062
  357. Stream size                              : 29.3 KiB (0%)
  358. Title                                    : Norwegian Bokmal
  359. Language                                 : Norwegian Bokmal
  360. Default                                  : No
  361. Forced                                   : No
  362. Text #23
  363. ID                                       : 25
  364. Format                                   : UTF-8
  365. Codec ID                                 : S_TEXT/UTF8
  366. Codec ID/Info                            : UTF-8 Plain Text
  367. Duration                                 : 1 h 29 min
  368. Bit rate                                 : 43 b/s
  369. Frame rate                               : 0.201 FPS
  370. Count of elements                        : 1075
  371. Stream size                              : 28.8 KiB (0%)
  372. Title                                    : Filipino
  373. Language                                 : phi
  374. Default                                  : No
  375. Forced                                   : No
  376. Text #24
  377. ID                                       : 26
  378. Format                                   : UTF-8
  379. Codec ID                                 : S_TEXT/UTF8
  380. Codec ID/Info                            : UTF-8 Plain Text
  381. Duration                                 : 1 h 29 min
  382. Bit rate                                 : 42 b/s
  383. Frame rate                               : 0.204 FPS
  384. Count of elements                        : 1092
  385. Stream size                              : 27.7 KiB (0%)
  386. Title                                    : Polish
  387. Language                                 : Polish
  388. Default                                  : No
  389. Forced                                   : No
  390. Text #25
  391. ID                                       : 27
  392. Format                                   : UTF-8
  393. Codec ID                                 : S_TEXT/UTF8
  394. Codec ID/Info                            : UTF-8 Plain Text
  395. Duration                                 : 1 h 29 min
  396. Bit rate                                 : 46 b/s
  397. Frame rate                               : 0.210 FPS
  398. Count of elements                        : 1125
  399. Stream size                              : 30.1 KiB (0%)
  400. Title                                    : Brazilian Portuguese
  401. Language                                 : Portuguese
  402. Default                                  : No
  403. Forced                                   : No
  404. Text #26
  405. ID                                       : 28
  406. Format                                   : UTF-8
  407. Codec ID                                 : S_TEXT/UTF8
  408. Codec ID/Info                            : UTF-8 Plain Text
  409. Duration                                 : 1 h 29 min
  410. Bit rate                                 : 46 b/s
  411. Frame rate                               : 0.225 FPS
  412. Count of elements                        : 1208
  413. Stream size                              : 30.6 KiB (0%)
  414. Title                                    : Portuguese
  415. Language                                 : Portuguese
  416. Default                                  : No
  417. Forced                                   : No
  418. Text #27
  419. ID                                       : 29
  420. Format                                   : UTF-8
  421. Codec ID                                 : S_TEXT/UTF8
  422. Codec ID/Info                            : UTF-8 Plain Text
  423. Duration                                 : 1 h 29 min
  424. Bit rate                                 : 50 b/s
  425. Frame rate                               : 0.205 FPS
  426. Count of elements                        : 1099
  427. Stream size                              : 32.9 KiB (0%)
  428. Title                                    : Romanian
  429. Language                                 : Romanian
  430. Default                                  : No
  431. Forced                                   : No
  432. Text #28
  433. ID                                       : 30
  434. Format                                   : UTF-8
  435. Codec ID                                 : S_TEXT/UTF8
  436. Codec ID/Info                            : UTF-8 Plain Text
  437. Duration                                 : 1 h 29 min
  438. Bit rate                                 : 73 b/s
  439. Frame rate                               : 0.201 FPS
  440. Count of elements                        : 1075
  441. Stream size                              : 47.7 KiB (0%)
  442. Title                                    : Russian
  443. Language                                 : Russian
  444. Default                                  : No
  445. Forced                                   : No
  446. Text #29
  447. ID                                       : 31
  448. Format                                   : UTF-8
  449. Codec ID                                 : S_TEXT/UTF8
  450. Codec ID/Info                            : UTF-8 Plain Text
  451. Duration                                 : 1 h 29 min
  452. Bit rate                                 : 45 b/s
  453. Frame rate                               : 0.209 FPS
  454. Count of elements                        : 1118
  455. Stream size                              : 29.8 KiB (0%)
  456. Title                                    : European Spanish
  457. Language                                 : Spanish
  458. Default                                  : No
  459. Forced                                   : No
  460. Text #30
  461. ID                                       : 32
  462. Format                                   : UTF-8
  463. Codec ID                                 : S_TEXT/UTF8
  464. Codec ID/Info                            : UTF-8 Plain Text
  465. Duration                                 : 1 h 29 min
  466. Bit rate                                 : 45 b/s
  467. Frame rate                               : 0.209 FPS
  468. Count of elements                        : 1117
  469. Stream size                              : 29.4 KiB (0%)
  470. Title                                    : Spanish
  471. Language                                 : Spanish
  472. Default                                  : No
  473. Forced                                   : No
  474. Text #31
  475. ID                                       : 33
  476. Format                                   : UTF-8
  477. Codec ID                                 : S_TEXT/UTF8
  478. Codec ID/Info                            : UTF-8 Plain Text
  479. Duration                                 : 1 h 29 min
  480. Bit rate                                 : 46 b/s
  481. Frame rate                               : 0.176 FPS
  482. Count of elements                        : 940
  483. Stream size                              : 30.7 KiB (0%)
  484. Title                                    : Swedish
  485. Language                                 : Swedish
  486. Default                                  : No
  487. Forced                                   : No
  488. Text #32
  489. ID                                       : 34
  490. Format                                   : UTF-8
  491. Codec ID                                 : S_TEXT/UTF8
  492. Codec ID/Info                            : UTF-8 Plain Text
  493. Duration                                 : 1 h 29 min
  494. Bit rate                                 : 136 b/s
  495. Frame rate                               : 0.214 FPS
  496. Count of elements                        : 1147
  497. Stream size                              : 89.2 KiB (0%)
  498. Title                                    : Thai
  499. Language                                 : Thai
  500. Default                                  : No
  501. Forced                                   : No
  502. Text #33
  503. ID                                       : 35
  504. Format                                   : UTF-8
  505. Codec ID                                 : S_TEXT/UTF8
  506. Codec ID/Info                            : UTF-8 Plain Text
  507. Duration                                 : 1 h 29 min
  508. Bit rate                                 : 46 b/s
  509. Frame rate                               : 0.202 FPS
  510. Count of elements                        : 1083
  511. Stream size                              : 30.3 KiB (0%)
  512. Title                                    : Turkish
  513. Language                                 : Turkish
  514. Default                                  : No
  515. Forced                                   : No
  516. Text #34
  517. ID                                       : 36
  518. Format                                   : UTF-8
  519. Codec ID                                 : S_TEXT/UTF8
  520. Codec ID/Info                            : UTF-8 Plain Text
  521. Duration                                 : 1 h 29 min
  522. Bit rate                                 : 72 b/s
  523. Frame rate                               : 0.212 FPS
  524. Count of elements                        : 1136
  525. Stream size                              : 47.5 KiB (0%)
  526. Title                                    : Ukrainian
  527. Language                                 : Ukrainian
  528. Default                                  : No
  529. Forced                                   : No
  530. Text #35
  531. ID                                       : 37
  532. Format                                   : UTF-8
  533. Codec ID                                 : S_TEXT/UTF8
  534. Codec ID/Info                            : UTF-8 Plain Text
  535. Duration                                 : 1 h 29 min
  536. Bit rate                                 : 68 b/s
  537. Frame rate                               : 0.186 FPS
  538. Count of elements                        : 997
  539. Stream size                              : 44.5 KiB (0%)
  540. Title                                    : Vietnamese
  541. Language                                 : Vietnamese
  542. Default                                  : No
  543. Forced                                   : No
复制代码











回复

使用道具 举报

蓝光币
0
发表于 2023-1-8 14:34:00 | 显示全部楼层
喜欢看这部电影
回复 支持 反对

使用道具 举报

蓝光币
44
发表于 2023-1-9 18:30:45 | 显示全部楼层
谢谢楼主
回复

使用道具 举报

懒得打字嘛,点击右侧快捷回复 【右侧内容,后台自定义】
您需要登录后才可以回帖 登录 | 立即加入

本版积分规则

Archiver|小黑屋| 蓝光电影网 |网站地图

Copyright © 2021 Comsenz Inc. Powered by 蓝光电影网

蓝光电影网

本站内容由用户自主分享和转载自互联网,转载目的在于传递更多信息,并不代表本网赞同其观点和对其真实性负责。

如有侵权、违反国家法律政策行为,请联系我们,我们会第一时间及时清除和处理!

举报反馈邮箱:[email protected]

快速回复 返回顶部 返回列表