找回密码

蓝光电影网

查看: 192|回复: 1

[2160p-WEB] 末日戒备[中文字幕].The.Peacemaker.1997.2160p.WEB-DL.x265.8bit.SDR.DTS-HD.MA.5.1-NOGRP 16.96GB

[复制链接]
蓝光币
1084
发表于 2023-1-8 13:30:22 | 显示全部楼层 |阅读模式


◎标  题 末日防备
◎译  名 战争制造者 / 计谋杀手 / 战争缔造者
◎片  名 The Peacemaker
◎年  代 1997
◎产  地 美国
◎类  别 行动 / 惊悚
◎语  言 英语 / 俄语 / 塞尔维亚语 / 克罗地亚语 / 波斯尼亚语 / 德语
◎上映日期 1997-09-26(美国)
◎IMDb评分 6/10 (56579人评价)
◎IMDb链接 https://www.imdb.com/title/tt0119874/
◎豆瓣评分 6.6/10 (4780人评价)
◎豆瓣链接 https://movie.douban.com/subject/1293506/
◎片  长 124 分钟
◎导  演 米密·莱德 Mimi Leder
◎编  剧 莱斯利·考伯恩 Leslie Cockburn
       安德鲁·考伯恩 Andrew Cockburn
       迈克尔·希弗 Michael Schiffer
◎演  员 乔治·克鲁尼 George Clooney
       妮可·基德曼 Nicole Kidman
       马塞尔·尤勒斯 Marcel Iures
       亚历山大·巴鲁耶夫 Aleksandr Baluev
       Rene Medvesek Rene Medvesek
       加里·韦恩兹 Gary Werntz
       兰道尔·巴蒂尼科夫 Randall Batinkoff
       吉姆·海尼 Jim Haynie
       亚历山大·斯特罗贝勒 Alexander Strobele
       霍特·麦克卡兰尼 Holt McCallany
       迈克尔·波特曼 Michael Boatman
       琼·科普兰 Joan Copeland
       卡洛斯·戈麦斯 Carlos Gómez
       阿明·缪勒-斯塔尔 Armin Mueller-Stahl
       Slavko Juraga Slavko Juraga
       Aleksandr Peskov Aleksandr Peskov
       德扬·阿西莫维奇 Dejan Acimovic
       马特·阿德勒 Matt Adler
       塔马拉·图尼 Tamara Tunie
       亚历山大·雅茨科 Aleksandr Yatsko
       阿迪纳·波特 Adina Porter
       Hubert Kramar Hubert Kramar
       阿尔玛·奎尔沃 Alma Cuervo
       塞巴斯蒂安·罗奇 Sebastian Roché
       布莱斯·科里根 Blaise Corrigan
       高兰·维斯耶克 Goran Visnjic
       杰·阿克沃内 Jay Acovone
       汉娜·莱德 Hannah Leder
       詹姆斯·科尔比 James Colby
       Jean Rogers Jean Rogers
       马特·温斯顿 Matt Winston
       泰瑞·塞尔皮科 Terry Serpico
       索姆-马修斯 Thom Mathews
       Jerry Dixon Jerry Dixon
       路易斯·穆斯蒂略 Louis Mustillo
       博兹达尔·斯密贾尼克 Bozidar Smiljanic
       迈克尔·波茨 Michael Potts
       Richard Poe Richard Poe
       斯洛博丹·迪米特里耶维奇 Slobodan Dimitrijevic
       Dave Simonds Dave Simonds
       查克·库珀 Chuck Cooper
       Jared Chandler Jared Chandler
       布兰科·拉斯蒂格 Branko Lustig
       Matthew Sussman Matthew Sussman
       伯尼·麦克伦尼 Bernie McInerney
       詹姆斯·杜蒙特 James DuMont
       亚历山大·昆泽内斯特罗夫 Alexander Kuznetsov
       布鲁斯·加里 Bruce Gray
       安德烈·胡勒斯 Endre Hules
       亚当·亚里克斯-马里 Adam Alexi-Malle
       Steve Altes Steve Altes
       里卡多·科德罗 Ricardo Cordero
        Christopher Del Gaudio
       约瑟夫·H·卡尼奥尔 Jason H. Karniol
       Steve Nuke Steve Nuke
        Francesco Paladino
       Todo Segalla Todo Segalla
       Oriana Nicole Tavoularis Oriana Nicole Tavoularis
       莱斯利·迪利 Leslie Dilley
◎标  签 行动 / 美国 / 反恐 / 乔治·克鲁尼 / NicoleKidman / GeorgeClooney / 美国电影 / 尼科尔·基德曼
◎简  介
    偏僻的俄罗斯驻防军区,两列火车相撞爆炸。随即发生了一场匪夷所思的核爆炸,俄罗斯境内形成严重伤亡。美国白宫反核走私情报部分的朱莉亚·凯利(妮可·基德曼 Nicole Kidman饰)博士思疑这起核意外并非偶然发生的变乱。为了清查这起爆炸的委曲,查明背后的真相,朱莉亚与陆军特种军队的少尉托马斯·威尔(乔治·克鲁尼 George Clooney饰)受命展开观察。他们在艰辛的观察中,竟发现了一个惊天大诡计。一位冒充政客的核可骇份子已照顾核弹头进入美国外乡,欲炸毁设在纽约的结合国总部。                                                                      女导演咪咪·莱德的电影童贞作《末日防备》,按照资深观察记者安德鲁·科伯恩和莱斯利·科伯恩的文章改编而成,其中素材源于科伯恩佳耦收集的解密情报和实在消息事务。
  1. Video
  2. ID                                       : 1
  3. Format                                   : HEVC
  4. Format/Info                              : High Efficiency Video Coding
  5. Format profile                           : [email protected]@High
  6. Codec ID                                 : V_MPEGH/ISO/HEVC
  7. Duration                                 : 2 h 3 min
  8. Bit rate                                 : 14.6 Mb/s
  9. Width                                    : 3 840 pixels
  10. Height                                   : 2 160 pixels
  11. Display aspect ratio                     : 16:9
  12. Frame rate mode                          : Constant
  13. Frame rate                               : 23.976 (24000/1001) FPS
  14. Color space                              : YUV
  15. Chroma subsampling                       : 4:2:0
  16. Bit depth                                : 8 bits
  17. Bits/(Pixel*Frame)                       : 0.074
  18. Stream size                              : 12.7 GiB (75%)
  19. Default                                  : Yes
  20. Forced                                   : No
  21. Color range                              : Limited
  22. Color primaries                          : BT.709
  23. Transfer characteristics                 : BT.709
  24. Matrix coefficients                      : BT.709
  25. Audio #1
  26. ID                                       : 2
  27. Format                                   : DTS XLL
  28. Format/Info                              : Digital Theater Systems
  29. Commercial name                          : DTS-HD Master Audio
  30. Codec ID                                 : A_DTS
  31. Duration                                 : 2 h 3 min
  32. Bit rate mode                            : Variable
  33. Bit rate                                 : 4 395 kb/s
  34. Channel(s)                               : 6 channels
  35. Channel layout                           : C L R Ls Rs LFE
  36. Sampling rate                            : 48.0 kHz
  37. Frame rate                               : 93.750 FPS (512 SPF)
  38. Bit depth                                : 24 bits
  39. Compression mode                         : Lossless
  40. Stream size                              : 3.80 GiB (22%)
  41. Title                                    : DTS-HD Master Audio / 5.1 / 48 kHz / 4395 kbps / 24-bit
  42. Language                                 : English
  43. Default                                  : Yes
  44. Forced                                   : No
  45. Audio #2
  46. ID                                       : 3
  47. Format                                   : AAC LC
  48. Format/Info                              : Advanced Audio Codec Low Complexity
  49. Codec ID                                 : A_AAC-2
  50. Duration                                 : 2 h 3 min
  51. Bit rate                                 : 445 kb/s
  52. Channel(s)                               : 6 channels
  53. Channel layout                           : C L R Ls Rs LFE
  54. Sampling rate                            : 48.0 kHz
  55. Frame rate                               : 46.875 FPS (1024 SPF)
  56. Compression mode                         : Lossy
  57. Stream size                              : 395 MiB (2%)
  58. Language                                 : English
  59. Default                                  : No
  60. Forced                                   : No
  61. Text #1
  62. ID                                       : 4
  63. Format                                   : UTF-8
  64. Codec ID                                 : S_TEXT/UTF8
  65. Codec ID/Info                            : UTF-8 Plain Text
  66. Duration                                 : 2 h 2 min
  67. Bit rate                                 : 56 b/s
  68. Frame rate                               : 0.227 FPS
  69. Count of elements                        : 1661
  70. Stream size                              : 50.3 KiB (0%)
  71. Language                                 : English
  72. Default                                  : Yes
  73. Forced                                   : No
  74. Text #2
  75. ID                                       : 5
  76. Format                                   : PGS
  77. Muxing mode                              : zlib
  78. Codec ID                                 : S_HDMV/PGS
  79. Codec ID/Info                            : Picture based subtitle format used on BDs/HD-DVDs
  80. Duration                                 : 1 h 21 min
  81. Bit rate                                 : 3 347 b/s
  82. Frame rate                               : 0.041 FPS
  83. Count of elements                        : 203
  84. Stream size                              : 1.96 MiB (0%)
  85. Title                                    : Forced
  86. Language                                 : English
  87. Default                                  : No
  88. Forced                                   : Yes
  89. Text #3
  90. ID                                       : 6
  91. Format                                   : PGS
  92. Muxing mode                              : zlib
  93. Codec ID                                 : S_HDMV/PGS
  94. Codec ID/Info                            : Picture based subtitle format used on BDs/HD-DVDs
  95. Duration                                 : 1 h 56 min
  96. Bit rate                                 : 46.7 kb/s
  97. Frame rate                               : 0.340 FPS
  98. Count of elements                        : 2385
  99. Stream size                              : 39.0 MiB (0%)
  100. Language                                 : English
  101. Default                                  : No
  102. Forced                                   : No
  103. Text #4
  104. ID                                       : 7
  105. Format                                   : PGS
  106. Muxing mode                              : zlib
  107. Codec ID                                 : S_HDMV/PGS
  108. Codec ID/Info                            : Picture based subtitle format used on BDs/HD-DVDs
  109. Duration                                 : 1 h 58 min
  110. Bit rate                                 : 54.4 kb/s
  111. Frame rate                               : 0.408 FPS
  112. Count of elements                        : 2895
  113. Stream size                              : 46.0 MiB (0%)
  114. Title                                    : SDH
  115. Language                                 : English
  116. Default                                  : No
  117. Forced                                   : No
  118. Text #5
  119. ID                                       : 8
  120. Format                                   : PGS
  121. Muxing mode                              : zlib
  122. Codec ID                                 : S_HDMV/PGS
  123. Codec ID/Info                            : Picture based subtitle format used on BDs/HD-DVDs
  124. Duration                                 : 1 h 58 min
  125. Bit rate                                 : 29.1 kb/s
  126. Frame rate                               : 0.345 FPS
  127. Count of elements                        : 2457
  128. Stream size                              : 24.7 MiB (0%)
  129. Title                                    : Mandarin Simplified
  130. Language                                 : Chinese
  131. Default                                  : No
  132. Forced                                   : No
  133. Text #6
  134. ID                                       : 9
  135. Format                                   : PGS
  136. Muxing mode                              : zlib
  137. Codec ID                                 : S_HDMV/PGS
  138. Codec ID/Info                            : Picture based subtitle format used on BDs/HD-DVDs
  139. Duration                                 : 1 h 58 min
  140. Bit rate                                 : 30.5 kb/s
  141. Frame rate                               : 0.345 FPS
  142. Count of elements                        : 2457
  143. Stream size                              : 25.9 MiB (0%)
  144. Title                                    : Mandarin Traditional
  145. Language                                 : Chinese
  146. Default                                  : No
  147. Forced                                   : No
  148. Text #7
  149. ID                                       : 10
  150. Format                                   : PGS
  151. Muxing mode                              : zlib
  152. Codec ID                                 : S_HDMV/PGS
  153. Codec ID/Info                            : Picture based subtitle format used on BDs/HD-DVDs
  154. Duration                                 : 2 h 2 min
  155. Bit rate                                 : 35.2 kb/s
  156. Frame rate                               : 0.298 FPS
  157. Count of elements                        : 2187
  158. Stream size                              : 30.8 MiB (0%)
  159. Language                                 : French
  160. Default                                  : No
  161. Forced                                   : No
  162. Text #8
  163. ID                                       : 11
  164. Format                                   : PGS
  165. Muxing mode                              : zlib
  166. Codec ID                                 : S_HDMV/PGS
  167. Codec ID/Info                            : Picture based subtitle format used on BDs/HD-DVDs
  168. Duration                                 : 1 h 57 min
  169. Bit rate                                 : 40.0 kb/s
  170. Frame rate                               : 0.339 FPS
  171. Count of elements                        : 2397
  172. Stream size                              : 33.7 MiB (0%)
  173. Title                                    : Brazilian
  174. Language                                 : Portuguese
  175. Default                                  : No
  176. Forced                                   : No
  177. Text #9
  178. ID                                       : 12
  179. Format                                   : PGS
  180. Muxing mode                              : zlib
  181. Codec ID                                 : S_HDMV/PGS
  182. Codec ID/Info                            : Picture based subtitle format used on BDs/HD-DVDs
  183. Duration                                 : 1 h 58 min
  184. Bit rate                                 : 35.9 kb/s
  185. Frame rate                               : 0.300 FPS
  186. Count of elements                        : 2130
  187. Stream size                              : 30.4 MiB (0%)
  188. Language                                 : Russian
  189. Default                                  : No
  190. Forced                                   : No
  191. Text #10
  192. ID                                       : 13
  193. Format                                   : PGS
  194. Muxing mode                              : zlib
  195. Codec ID                                 : S_HDMV/PGS
  196. Codec ID/Info                            : Picture based subtitle format used on BDs/HD-DVDs
  197. Duration                                 : 1 h 57 min
  198. Bit rate                                 : 35.6 kb/s
  199. Frame rate                               : 0.309 FPS
  200. Count of elements                        : 2182
  201. Stream size                              : 30.0 MiB (0%)
  202. Title                                    : Latin American
  203. Language                                 : Spanish
  204. Default                                  : No
  205. Forced                                   : No
  206. Menu
  207. 00:00:00.000                             : en:Appointments with Death: Main Titles
  208. 00:15:49.740                             : en:Nuclear Night
  209. 00:16:53.637                             : en:A Terrorist Act
  210. 00:27:00.535                             : en:The Military Liaison
  211. 00:29:03.450                             : en:The Kodoroff Connection
  212. 00:41:51.509                             : en:The Guy Who Gets Things Done
  213. 00:47:45.696                             : en:Violence in Vienna
  214. 00:59:10.338                             : en:The Eye in the Sky
  215. 01:09:28.747                             : en:To Risk a War
  216. 01:11:38.836                             : en:Unauthorized Entry
  217. 01:17:04.411                             : en:Devoe Drops In
  218. 01:24:15.925                             : en:A Message to IFOR
  219. 01:29:25.985                             : en:The Presidential Directive
  220. 01:39:12.071                             : en:The Hunt
  221. 01:53:08.782                             : en:The Ticking Bomb
  222. 01:57:54.859                             : en:In One Piece (End Titles)
复制代码











回复

使用道具 举报

蓝光币
5
发表于 2023-1-9 15:53:00 | 显示全部楼层
thanks for sharing!!
回复 支持 反对

使用道具 举报

懒得打字嘛,点击右侧快捷回复 【右侧内容,后台自定义】
您需要登录后才可以回帖 登录 | 立即加入

本版积分规则

Archiver|小黑屋| 蓝光电影网 |网站地图

Copyright © 2021 Comsenz Inc. Powered by 蓝光电影网

蓝光电影网

本站内容由用户自主分享和转载自互联网,转载目的在于传递更多信息,并不代表本网赞同其观点和对其真实性负责。

如有侵权、违反国家法律政策行为,请联系我们,我们会第一时间及时清除和处理!

举报反馈邮箱:[email protected]

快速回复 返回顶部 返回列表