找回密码

蓝光电影网

查看: 150|回复: 1

[恐怖] 欲血僵尸.Bloodlust.Zombies.2011.1080p.BluRay.x264.DD2.0-PTer 11.32GB

[复制链接]
蓝光币
1080
发表于 2023-1-8 13:36:38 | 显示全部楼层 |阅读模式


◎标  题 欲血僵尸
◎片  名 Bloodlust Zombies
◎年  代 2011
◎产  地 美国
◎类  别 可骇
◎语  言 英语
◎IMDb评分 3.1/10 (689人评价)
◎IMDb链接 https://www.imdb.com/title/tt1904850/
◎豆瓣链接 https://movie.douban.com/subject/6518588/
◎片  长 80分钟
◎演  员 亚历克茜·德克萨丝 Alexis Texas
◎简  介
  A military weapons manufacturer creates a chemical weapon that causes victims to become blood-lusting killers. A lab accident causes the building to go into lock-down and the employees are trapped inside with the crazed killers.
  1. Video
  2. ID                                       : 1
  3. Format                                   : AVC
  4. Format/Info                              : Advanced Video Codec
  5. Format profile                           : [email protected]
  6. Format settings                          : CABAC / 4 Ref Frames
  7. Format settings, CABAC                   : Yes
  8. Format settings, Reference frames        : 4 frames
  9. Codec ID                                 : V_MPEG4/ISO/AVC
  10. Duration                                 : 1 h 16 min
  11. Bit rate                                 : 21.1 Mb/s
  12. Width                                    : 1 920 pixels
  13. Height                                   : 1 080 pixels
  14. Display aspect ratio                     : 16:9
  15. Frame rate mode                          : Constant
  16. Frame rate                               : 23.976 (24000/1001) FPS
  17. Color space                              : YUV
  18. Chroma subsampling                       : 4:2:0
  19. Bit depth                                : 8 bits
  20. Scan type                                : Progressive
  21. Bits/(Pixel*Frame)                       : 0.425
  22. Stream size                              : 11.2 GiB (99%)
  23. Title                                    : English
  24. Writing library                          : x264 core 164 r3094 bfc87b7
  25. Encoding settings                        : cabac=1 / ref=4 / deblock=1:-3:-3 / analyse=0x3:0x133 / me=umh / subme=11 / psy=1 / psy_rd=1.02:0.00 / mixed_ref=1 / me_range=32 / chroma_me=1 / trellis=2 / 8x8dct=1 / cqm=0 / deadzone=21,11 / fast_pskip=0 / chroma_qp_offset=-2 / threads=18 / lookahead_threads=4 / sliced_threads=0 / nr=0 / decimate=0 / interlaced=0 / bluray_compat=0 / constrained_intra=0 / bframes=16 / b_pyramid=2 / b_adapt=2 / b_bias=0 / direct=3 / weightb=1 / open_gop=0 / weightp=2 / keyint=250 / keyint_min=23 / scenecut=40 / intra_refresh=0 / rc_lookahead=250 / rc=crf / mbtree=0 / crf=17.4 / qcomp=0.70 / qpmin=0 / qpmax=69 / qpstep=4 / vbv_maxrate=62500 / vbv_bufsize=78125 / crf_max=0.0 / nal_hrd=none / filler=0 / ip_ratio=1.30 / pb_ratio=1.20 / aq=3:0.8
  26. Language                                 : English
  27. Default                                  : Yes
  28. Forced                                   : No
  29. Color range                              : Limited
  30. Color primaries                          : BT.709
  31. Matrix coefficients                      : BT.709
  32. Audio
  33. ID                                       : 2
  34. Format                                   : AC-3
  35. Format/Info                              : Audio Coding 3
  36. Commercial name                          : Dolby Digital
  37. Codec ID                                 : A_AC3
  38. Duration                                 : 1 h 16 min
  39. Bit rate mode                            : Constant
  40. Bit rate                                 : 192 kb/s
  41. Channel(s)                               : 2 channels
  42. Channel layout                           : L R
  43. Sampling rate                            : 48.0 kHz
  44. Frame rate                               : 31.250 FPS (1536 SPF)
  45. Compression mode                         : Lossy
  46. Stream size                              : 104 MiB (1%)
  47. Title                                    : English
  48. Language                                 : English
  49. Service kind                             : Complete Main
  50. Default                                  : Yes
  51. Forced                                   : No
  52. Text #1
  53. ID                                       : 3
  54. Format                                   : UTF-8
  55. Codec ID                                 : S_TEXT/UTF8
  56. Codec ID/Info                            : UTF-8 Plain Text
  57. Duration                                 : 1 h 14 min
  58. Bit rate                                 : 54 b/s
  59. Frame rate                               : 0.262 FPS
  60. Count of elements                        : 1170
  61. Stream size                              : 29.9 KiB (0%)
  62. Title                                    : English
  63. Language                                 : English
  64. Default                                  : No
  65. Forced                                   : No
  66. Text #2
  67. ID                                       : 4
  68. Format                                   : UTF-8
  69. Codec ID                                 : S_TEXT/UTF8
  70. Codec ID/Info                            : UTF-8 Plain Text
  71. Duration                                 : 1 h 15 min
  72. Bit rate                                 : 55 b/s
  73. Frame rate                               : 0.272 FPS
  74. Count of elements                        : 1234
  75. Stream size                              : 30.8 KiB (0%)
  76. Title                                    : English SDH
  77. Language                                 : English
  78. Default                                  : No
  79. Forced                                   : No
  80. Menu
  81. 00:00:00.000                             : en:Chapter 01
  82. 00:08:01.247                             : en:Chapter 02
  83. 00:16:02.495                             : en:Chapter 03
  84. 00:24:03.742                             : en:Chapter 04
  85. 00:32:04.990                             : en:Chapter 05
  86. 00:40:06.237                             : en:Chapter 06
  87. 00:48:07.485                             : en:Chapter 07
  88. 00:56:08.732                             : en:Chapter 08
  89. 01:04:09.979                             : en:Chapter 09
  90. 01:12:11.227                             : en:Chapter 10
复制代码











回复

使用道具 举报

蓝光币
13
发表于 2023-1-9 23:44:36 | 显示全部楼层
谢谢楼主分享
回复 支持 反对

使用道具 举报

懒得打字嘛,点击右侧快捷回复 【右侧内容,后台自定义】
您需要登录后才可以回帖 登录 | 立即加入

本版积分规则

Archiver|小黑屋| 蓝光电影网 |网站地图

Copyright © 2021 Comsenz Inc. Powered by 蓝光电影网

蓝光电影网

本站内容由用户自主分享和转载自互联网,转载目的在于传递更多信息,并不代表本网赞同其观点和对其真实性负责。

如有侵权、违反国家法律政策行为,请联系我们,我们会第一时间及时清除和处理!

举报反馈邮箱:[email protected]

快速回复 返回顶部 返回列表