找回密码

蓝光电影网

查看: 81|回复: 1

[剧情] 末路雷霆.The.Rebel.2007.VIETNAMESE.1080p.BluRay.x264.DTS-VHD 11.29GB

[复制链接]
蓝光币
1084
发表于 2023-1-8 13:36:38 | 显示全部楼层 |阅读模式


◎标  题 末路雷霆
◎译  名 拳戒 / The Rebel
◎片  名 Dòng máu anh hùng
◎年  代 2007
◎产  地 越南
◎类  别 剧情 / 行动 / 恋爱
◎语  言 越南语 / 法语
◎上映日期 2007-04-27(越南)
◎IMDb评分 6.9/10 (2286人评价)
◎IMDb链接 https://www.imdb.com/title/tt0782154/
◎豆瓣评分 6.4/10 (584人评价)
◎豆瓣链接 https://movie.douban.com/subject/2356942/
◎片  长 103分钟
◎导  演 阮正直 Charlie Nguyễn
◎编  剧 阮正直 Charlie Nguyễn
       阮明智 Johnny Nguyen
◎演  员 阮明智 Johnny Nguyen
       吴青芸 Thanh Van Ngo
       阮春智 Dustin Nguyen
       阮正信 Nguyen Chanh Tin
       斯蒂芬·乔治 Stephane Gauger
       阮厚 Nguyễn Hậu
◎简  介
    《末路雷霆》原名《拳戒》,报告的是在法殖民地期间殖民政府与抵抗构造之间的一场相互渗透的“无间斗法”。1922年,越南正处在法国的殖民统治之下,在法殖民政府的榨取下大势已经变得暗流澎湃危机四伏,反法统治的游击队和民族活动已成星星之火之势不成整理,针对法殖民政府的暗杀更是此起彼伏。为了完全弹压民族自力构造,殖民政府派出卧底潜入反法的反动构造,企图将其一网打尽,与此同时抵抗构造也从没有放弃对殖民政府内部的策反工作,双方在南亚森林中展开了一场钩心斗角的“无间斗法”。
  1. Video
  2. ID                                       : 1
  3. Format                                   : AVC
  4. Format/Info                              : Advanced Video Codec
  5. Format profile                           : [email protected]
  6. Format settings                          : CABAC / 4 Ref Frames
  7. Format settings, CABAC                   : Yes
  8. Format settings, Reference frames        : 4 frames
  9. Codec ID                                 : V_MPEG4/ISO/AVC
  10. Duration                                 : 1 h 44 min
  11. Bit rate                                 : 14.0 Mb/s
  12. Width                                    : 1 920 pixels
  13. Height                                   : 1 080 pixels
  14. Display aspect ratio                     : 16:9
  15. Frame rate mode                          : Constant
  16. Frame rate                               : 20.000 FPS
  17. Color space                              : YUV
  18. Chroma subsampling                       : 4:2:0
  19. Bit depth                                : 8 bits
  20. Scan type                                : Progressive
  21. Bits/(Pixel*Frame)                       : 0.338
  22. Stream size                              : 10.2 GiB (90%)
  23. Title                                    : The.Rebel.2007.1080p.Bluray.DTS.x264-VietHD
  24. Writing library                          : x264 core 157 r2867+103 0d6443f t_mod_Custom_2 [[email protected] X86_64]
  25. Encoding settings                        : cabac=1 / ref=4 / deblock=1:-3:-3 / analyse=0x3:0x133 / me=umh / subme=10 / psy=1 / fade_compensate=0.00 / psy_rd=1.10:0.00 / mixed_ref=1 / me_range=24 / chroma_me=1 / trellis=2 / 8x8dct=1 / cqm=0 / deadzone=21,11 / fast_pskip=0 / chroma_qp_offset=-2 / threads=12 / lookahead_threads=2 / sliced_threads=0 / nr=0 / decimate=0 / interlaced=0 / bluray_compat=0 / constrained_intra=0 / fgo=0 / bframes=9 / b_pyramid=2 / b_adapt=2 / b_bias=0 / direct=3 / weightb=1 / open_gop=0 / weightp=2 / keyint=250 / keyint_min=20 / scenecut=40 / intra_refresh=0 / rc_lookahead=60 / rc=2pass / mbtree=0 / bitrate=14000 / ratetol=1.0 / qcomp=0.60 / qpmin=0:0:0 / qpmax=69:69:69 / qpstep=4 / cplxblur=20.0 / qblur=0.5 / vbv_maxrate=62500 / vbv_bufsize=78125 / nal_hrd=none / filler=0 / ip_ratio=1.30 / pb_ratio=1.20 / aq=3:0.65 / aq-sensitivity=10.00 / aq-factor=1.00:1.00:1.00 / aq2=0 / aq3=0
  26. Language                                 : Vietnamese
  27. Default                                  : Yes
  28. Forced                                   : No
  29. Color range                              : Limited
  30. Matrix coefficients                      : BT.709
  31. Audio
  32. ID                                       : 2
  33. Format                                   : DTS
  34. Format/Info                              : Digital Theater Systems
  35. Codec ID                                 : A_DTS
  36. Duration                                 : 1 h 44 min
  37. Bit rate mode                            : Constant
  38. Bit rate                                 : 1 509 kb/s
  39. Channel(s)                               : 6 channels
  40. Channel layout                           : C L R Ls Rs LFE
  41. Sampling rate                            : 48.0 kHz
  42. Frame rate                               : 93.750 FPS (512 SPF)
  43. Bit depth                                : 24 bits
  44. Compression mode                         : Lossy
  45. Stream size                              : 1.10 GiB (10%)
  46. Title                                    : DTS 5.1
  47. Language                                 : Vietnamese
  48. Default                                  : Yes
  49. Forced                                   : No
  50. Text #1
  51. ID                                       : 3
  52. Format                                   : UTF-8
  53. Codec ID                                 : S_TEXT/UTF8
  54. Codec ID/Info                            : UTF-8 Plain Text
  55. Duration                                 : 1 h 23 min
  56. Bit rate                                 : 5 b/s
  57. Frame rate                               : 0.014 FPS
  58. Count of elements                        : 72
  59. Stream size                              : 3.22 KiB (0%)
  60. Language                                 : Vietnamese
  61. Default                                  : Yes
  62. Forced                                   : No
  63. Text #2
  64. ID                                       : 4
  65. Format                                   : UTF-8
  66. Codec ID                                 : S_TEXT/UTF8
  67. Codec ID/Info                            : UTF-8 Plain Text
  68. Duration                                 : 1 h 40 min
  69. Bit rate                                 : 28 b/s
  70. Frame rate                               : 0.090 FPS
  71. Count of elements                        : 545
  72. Stream size                              : 21.2 KiB (0%)
  73. Language                                 : Vietnamese
  74. Default                                  : No
  75. Forced                                   : No
  76. Text #3
  77. ID                                       : 5
  78. Format                                   : UTF-8
  79. Codec ID                                 : S_TEXT/UTF8
  80. Codec ID/Info                            : UTF-8 Plain Text
  81. Duration                                 : 1 h 39 min
  82. Bit rate                                 : 19 b/s
  83. Frame rate                               : 0.092 FPS
  84. Count of elements                        : 550
  85. Stream size                              : 14.2 KiB (0%)
  86. Language                                 : English
  87. Default                                  : No
  88. Forced                                   : No
  89. Text #4
  90. ID                                       : 6
  91. Format                                   : UTF-8
  92. Codec ID                                 : S_TEXT/UTF8
  93. Codec ID/Info                            : UTF-8 Plain Text
  94. Duration                                 : 1 h 43 min
  95. Bit rate                                 : 15 b/s
  96. Frame rate                               : 0.072 FPS
  97. Count of elements                        : 448
  98. Stream size                              : 11.4 KiB (0%)
  99. Language                                 : French
  100. Default                                  : No
  101. Forced                                   : No
  102. Menu
  103. 00:00:00.000                             : vi:00:00:00.000
  104. 00:17:21.560                             : vi:00:17:21.560
  105. 00:34:22.040                             : vi:00:34:22.040
  106. 00:51:56.120                             : vi:00:51:56.120
  107. 01:07:39.800                             : vi:01:07:39.800
  108. 01:24:15.040                             : vi:01:24:15.040
复制代码











回复

使用道具 举报

蓝光币
511
发表于 2023-1-9 19:02:55 | 显示全部楼层
楼主发贴辛苦了,谢谢楼主分享!我觉得蓝光电影网是注册对了!
回复 支持 反对

使用道具 举报

懒得打字嘛,点击右侧快捷回复 【右侧内容,后台自定义】
您需要登录后才可以回帖 登录 | 立即加入

本版积分规则

Archiver|小黑屋| 蓝光电影网 |网站地图

Copyright © 2021 Comsenz Inc. Powered by 蓝光电影网

蓝光电影网

本站内容由用户自主分享和转载自互联网,转载目的在于传递更多信息,并不代表本网赞同其观点和对其真实性负责。

如有侵权、违反国家法律政策行为,请联系我们,我们会第一时间及时清除和处理!

举报反馈邮箱:[email protected]

快速回复 返回顶部 返回列表