找回密码

蓝光电影网

查看: 169|回复: 2

[其他] 20岁的灵魂[中文字幕].20-Year-Old.Soul.2022.JAPANESE.1080p.BluRay.x264.DTS-iKiW 11.01GB

[复制链接]
蓝光币
1084
发表于 2023-1-8 13:36:39 | 显示全部楼层 |阅读模式


◎标  题 20岁的灵魂
◎译  名 20岁的soul / 20岁之魂
◎片  名 20歳のソウル
◎年  代 2022
◎产  地 日本
◎类  别 音乐
◎语  言 日语
◎上映日期 2022-05-27(日本)
◎IMDb评分 5.3/10 (9人评价)
◎IMDb链接 https://www.imdb.com/title/tt18952684/
◎豆瓣评分 5.9/10 (175人评价)
◎豆瓣链接 https://movie.douban.com/subject/35400144/
◎导  演 秋山純 Jun Akiyama
◎演  员 神尾枫珠 Kamio Fūju
       佐藤浩市 Kôichi Satô
       尾野真千子 Machiko Ono
       福本莉子 Riko Fukumoto
       若林时英 Jiei Wakabayashi
       松大航也 Koya Matsudai
       石黑贤 Ken Ishiguro
       池田朱那 Akana Ikeda
       前田航基 Koki Maeda
       平泉成 Sei Hiraizumi
       高桥克典 Katsunori Takahashi
◎简  介
    描写在一所以足球、棒球等体育名校而著名的高中,有一首名为《市船soul》的应援曲。这首歌在活动部的角逐中被演奏的话就会有气势,作为指导该校走向成功的“神”应援曲在推特上成为了话题。乐曲诞生的背后,有着一位因癌症20岁就归天的浅野大义青年。本作品描画创作《市船soul》的浅野师长和该校演奏乐部的拘束所发生的奇迹。
  1. Video
  2. ID                                       : 1
  3. Format                                   : AVC
  4. Format/Info                              : Advanced Video Codec
  5. Format profile                           : [email protected]
  6. Format settings                          : CABAC / 4 Ref Frames
  7. Format settings, CABAC                   : Yes
  8. Format settings, Reference frames        : 4 frames
  9. Codec ID                                 : V_MPEG4/ISO/AVC
  10. Duration                                 : 2 h 17 min
  11. Bit rate                                 : 9 976 kb/s
  12. Width                                    : 1 920 pixels
  13. Height                                   : 1 036 pixels
  14. Display aspect ratio                     : 1.85:1
  15. Frame rate mode                          : Constant
  16. Frame rate                               : 23.976 (24000/1001) FPS
  17. Color space                              : YUV
  18. Chroma subsampling                       : 4:2:0
  19. Bit depth                                : 8 bits
  20. Scan type                                : Progressive
  21. Bits/(Pixel*Frame)                       : 0.209
  22. Stream size                              : 9.55 GiB (87%)
  23. Title                                    : Jubowo @ WiKi
  24. Writing library                          : x264 core 164 r3101 b093bbe
  25. Encoding settings                        : cabac=1 / ref=4 / deblock=1:-3:-3 / analyse=0x3:0x133 / me=umh / subme=11 / psy=1 / psy_rd=1.00:0.10 / mixed_ref=1 / me_range=32 / chroma_me=1 / trellis=2 / 8x8dct=1 / cqm=0 / deadzone=21,11 / fast_pskip=0 / chroma_qp_offset=-3 / threads=30 / lookahead_threads=7 / sliced_threads=0 / nr=0 / decimate=0 / interlaced=0 / bluray_compat=0 / constrained_intra=0 / bframes=12 / b_pyramid=2 / b_adapt=1 / b_bias=0 / direct=3 / weightb=1 / open_gop=0 / weightp=2 / keyint=250 / keyint_min=23 / scenecut=40 / intra_refresh=0 / rc=2pass / mbtree=0 / bitrate=9976 / ratetol=1.0 / qcomp=0.70 / qpmin=0 / qpmax=69 / qpstep=4 / cplxblur=20.0 / qblur=0.5 / ip_ratio=1.40 / pb_ratio=1.30 / aq=3:0.90
  26. Language                                 : Japanese
  27. Default                                  : Yes
  28. Forced                                   : No
  29. Audio
  30. ID                                       : 2
  31. Format                                   : DTS
  32. Format/Info                              : Digital Theater Systems
  33. Codec ID                                 : A_DTS
  34. Duration                                 : 2 h 17 min
  35. Bit rate mode                            : Constant
  36. Bit rate                                 : 1 509 kb/s
  37. Channel(s)                               : 6 channels
  38. Channel layout                           : C L R Ls Rs LFE
  39. Sampling rate                            : 48.0 kHz
  40. Frame rate                               : 93.750 FPS (512 SPF)
  41. Bit depth                                : 24 bits
  42. Compression mode                         : Lossy
  43. Stream size                              : 1.44 GiB (13%)
  44. Language                                 : Japanese
  45. Default                                  : Yes
  46. Forced                                   : No
  47. Text #1
  48. ID                                       : 3
  49. Format                                   : UTF-8
  50. Codec ID                                 : S_TEXT/UTF8
  51. Codec ID/Info                            : UTF-8 Plain Text
  52. Duration                                 : 2 h 16 min
  53. Bit rate                                 : 34 b/s
  54. Frame rate                               : 0.172 FPS
  55. Count of elements                        : 1405
  56. Stream size                              : 35.0 KiB (0%)
  57. Language                                 : English
  58. Default                                  : Yes
  59. Forced                                   : No
  60. Text #2
  61. ID                                       : 4
  62. Format                                   : ASS
  63. Codec ID                                 : S_TEXT/ASS
  64. Codec ID/Info                            : Advanced Sub Station Alpha
  65. Duration                                 : 2 h 16 min
  66. Bit rate                                 : 61 b/s
  67. Frame rate                               : 0.166 FPS
  68. Count of elements                        : 1366
  69. Compression mode                         : Lossless
  70. Stream size                              : 61.4 KiB (0%)
  71. Title                                    : 简体
  72. Language                                 : Chinese (Simplied)
  73. Default                                  : No
  74. Forced                                   : No
  75. Text #3
  76. ID                                       : 5
  77. Format                                   : ASS
  78. Codec ID                                 : S_TEXT/ASS
  79. Codec ID/Info                            : Advanced Sub Station Alpha
  80. Duration                                 : 2 h 16 min
  81. Bit rate                                 : 61 b/s
  82. Frame rate                               : 0.166 FPS
  83. Count of elements                        : 1366
  84. Compression mode                         : Lossless
  85. Stream size                              : 61.4 KiB (0%)
  86. Title                                    : 繁體
  87. Language                                 : Chinese (Traditional)
  88. Default                                  : No
  89. Forced                                   : No
  90. Menu
  91. 00:00:00.000                             : en:Chapter 01
  92. 00:09:27.609                             : en:Chapter 02
  93. 00:19:09.607                             : en:Chapter 03
  94. 00:30:36.084                             : en:Chapter 04
  95. 00:38:44.822                             : en:Chapter 05
  96. 00:41:23.731                             : en:Chapter 06
  97. 00:54:17.045                             : en:Chapter 07
  98. 01:04:16.644                             : en:Chapter 08
  99. 01:15:15.594                             : en:Chapter 09
  100. 01:30:08.695                             : en:Chapter 10
  101. 01:49:08.125                             : en:Chapter 11
  102. 01:53:53.618                             : en:Chapter 12
  103. 02:07:01.197                             : en:Chapter 13
  104. 02:12:00.454                             : en:Chapter 14
复制代码











回复

使用道具 举报

蓝光币
385
发表于 2023-1-8 19:05:46 | 显示全部楼层

楼主太厉害了!楼主,电影应该很好看我觉得蓝光电影网真是个好地方!
回复 支持 反对

使用道具 举报

蓝光币
195
发表于 2023-1-9 12:04:09 | 显示全部楼层
感谢楼主,再发精品
回复 支持 反对

使用道具 举报

懒得打字嘛,点击右侧快捷回复 【右侧内容,后台自定义】
您需要登录后才可以回帖 登录 | 立即加入

本版积分规则

Archiver|小黑屋| 蓝光电影网 |网站地图

Copyright © 2021 Comsenz Inc. Powered by 蓝光电影网

蓝光电影网

本站内容由用户自主分享和转载自互联网,转载目的在于传递更多信息,并不代表本网赞同其观点和对其真实性负责。

如有侵权、违反国家法律政策行为,请联系我们,我们会第一时间及时清除和处理!

举报反馈邮箱:[email protected]

快速回复 返回顶部 返回列表