找回密码

蓝光电影网

查看: 106|回复: 0

[剧情] 流浪之月[中文字幕].The.Wandering.Moon.2022.JAPANESE.1080p.BluRay.x264.DD5.1-iKiW 11.00GB

[复制链接]
蓝光币
1080
发表于 2023-1-8 13:36:39 | 显示全部楼层 |阅读模式


◎标  题 流浪之月
◎译  名 流浪的月 / Wandering
◎片  名 流浪の月
◎年  代 2022
◎产  地 日本
◎类  别 剧情 / 悬疑
◎语  言 日语
◎上映日期 2022-05-13(日本)
◎IMDb评分 7.2/10 (236人评价)
◎IMDb链接 https://www.imdb.com/title/tt15150608/
◎豆瓣评分 6.7/10 (2619人评价)
◎豆瓣链接 https://movie.douban.com/subject/35525388/
◎片  长 150分钟
◎导  演 李相日 Sang-il Lee
◎编  剧 凪良汐 Yuu Nagira
       李相日 Sang-il Lee
◎演  员 广濑铃 Suzu Hirose
       松坂桃李 Tôri Matsuzaka
       横滨流星 Ryûsei Yokohama
       多部未华子 Mikako Tabe
       趣里 Shuri
       三浦贵大 Takahiro Miura
       内田也哉子 Yayako Uchida
       柄本明 Akira Emoto
       白鸟玉季 Tamaki Shiratori
       增田光樱 Mio Masuda
       洪坰杓 Kyung-Pyo Hong
◎简  介
  無家可歸的女孩更紗在公園遇見孤獨的大學生文。「要來我家嗎?」一側绺柿匕愕难垖⒏啅闹舷⒌氖澜缪e拯救。兩傇碌墓餐钭杂煽鞓罚廊藚s以「女童誘拐事务」一言蔽之。文因誘拐罪遭逮捕,在炎天結束之際,相依相靠的日子隨即分崩離析,二人被蓋上「誘拐犯」和「受害女童」的烙印從此分道揚鑣。十五年後二人重逢,無法控制地靠近相互,昔日事务卻如影隨形。大眾先入為主的偏見,旁人窮追不捨的關懷,捉錯用神的好心將二人推入深淵。                                    
                                改編自本屋大賞得獎小說,《惡人》、《怒》得獎導演李相日最新虐心治癒之作,《燒失樂園》、《上流寄生族》、《哭聲》攝影洪坰杓首部日本作品,細膩影象撼動民气,人氣新生代女星廣瀨鈴、「日本奧斯卡」影帝松坂桃李破格出演。兩偲扑榈撵`魂,懷抱著難以啟齒的奥秘,在驚濤駭浪中找到相互的歸宿,不被社會了解的豪情,超越愛的忌讳關係。
  1. Video
  2. ID                                       : 1
  3. Format                                   : AVC
  4. Format/Info                              : Advanced Video Codec
  5. Format profile                           : [email protected]
  6. Format settings                          : CABAC / 5 Ref Frames
  7. Format settings, CABAC                   : Yes
  8. Format settings, Reference frames        : 5 frames
  9. Codec ID                                 : V_MPEG4/ISO/AVC
  10. Duration                                 : 2 h 30 min
  11. Bit rate                                 : 10 000 kb/s
  12. Width                                    : 1 920 pixels
  13. Height                                   : 804 pixels
  14. Display aspect ratio                     : 2.40:1
  15. Frame rate mode                          : Constant
  16. Frame rate                               : 23.976 (24000/1001) FPS
  17. Color space                              : YUV
  18. Chroma subsampling                       : 4:2:0
  19. Bit depth                                : 8 bits
  20. Scan type                                : Progressive
  21. Bits/(Pixel*Frame)                       : 0.270
  22. Stream size                              : 10.5 GiB (96%)
  23. Title                                    : Jubowo @ WiKi
  24. Writing library                          : x264 core 164 r3101 b093bbe
  25. Encoding settings                        : cabac=1 / ref=5 / deblock=1:-3:-3 / analyse=0x3:0x133 / me=umh / subme=11 / psy=1 / psy_rd=1.00:0.10 / mixed_ref=1 / me_range=32 / chroma_me=1 / trellis=2 / 8x8dct=1 / cqm=0 / deadzone=21,11 / fast_pskip=0 / chroma_qp_offset=-3 / threads=25 / lookahead_threads=6 / sliced_threads=0 / nr=0 / decimate=0 / interlaced=0 / bluray_compat=0 / constrained_intra=0 / bframes=12 / b_pyramid=2 / b_adapt=1 / b_bias=0 / direct=3 / weightb=1 / open_gop=0 / weightp=2 / keyint=250 / keyint_min=23 / scenecut=40 / intra_refresh=0 / rc=2pass / mbtree=0 / bitrate=10000 / ratetol=1.0 / qcomp=0.70 / qpmin=0 / qpmax=69 / qpstep=4 / cplxblur=20.0 / qblur=0.5 / ip_ratio=1.40 / pb_ratio=1.30 / aq=3:0.90
  26. Language                                 : Japanese
  27. Default                                  : Yes
  28. Forced                                   : No
  29. Audio
  30. ID                                       : 2
  31. Format                                   : AC-3
  32. Format/Info                              : Audio Coding 3
  33. Commercial name                          : Dolby Digital
  34. Codec ID                                 : A_AC3
  35. Duration                                 : 2 h 30 min
  36. Bit rate mode                            : Constant
  37. Bit rate                                 : 448 kb/s
  38. Channel(s)                               : 6 channels
  39. Channel layout                           : L R C LFE Ls Rs
  40. Sampling rate                            : 48.0 kHz
  41. Frame rate                               : 31.250 FPS (1536 SPF)
  42. Compression mode                         : Lossy
  43. Stream size                              : 483 MiB (4%)
  44. Language                                 : Japanese
  45. Service kind                             : Complete Main
  46. Default                                  : Yes
  47. Forced                                   : No
  48. Text #1
  49. ID                                       : 3
  50. Format                                   : UTF-8
  51. Codec ID                                 : S_TEXT/UTF8
  52. Codec ID/Info                            : UTF-8 Plain Text
  53. Duration                                 : 2 h 21 min
  54. Bit rate                                 : 18 b/s
  55. Frame rate                               : 0.101 FPS
  56. Count of elements                        : 863
  57. Stream size                              : 19.5 KiB (0%)
  58. Language                                 : English
  59. Default                                  : Yes
  60. Forced                                   : No
  61. Text #2
  62. ID                                       : 4
  63. Format                                   : ASS
  64. Codec ID                                 : S_TEXT/ASS
  65. Codec ID/Info                            : Advanced Sub Station Alpha
  66. Duration                                 : 2 h 26 min
  67. Bit rate                                 : 46 b/s
  68. Frame rate                               : 0.109 FPS
  69. Count of elements                        : 958
  70. Compression mode                         : Lossless
  71. Stream size                              : 50.2 KiB (0%)
  72. Title                                    : 简体
  73. Language                                 : Chinese (Simplied)
  74. Default                                  : No
  75. Forced                                   : No
  76. Text #3
  77. ID                                       : 5
  78. Format                                   : ASS
  79. Codec ID                                 : S_TEXT/ASS
  80. Codec ID/Info                            : Advanced Sub Station Alpha
  81. Duration                                 : 2 h 26 min
  82. Bit rate                                 : 46 b/s
  83. Frame rate                               : 0.109 FPS
  84. Count of elements                        : 958
  85. Compression mode                         : Lossless
  86. Stream size                              : 50.2 KiB (0%)
  87. Title                                    : 繁體
  88. Language                                 : Chinese (Traditional)
  89. Default                                  : No
  90. Forced                                   : No
  91. Menu
  92. 00:00:00.000                             : en:Chapter 01
  93. 00:03:49.980                             : en:Chapter 02
  94. 00:11:32.901                             : en:Chapter 03
  95. 00:17:23.334                             : en:Chapter 04
  96. 00:31:18.168                             : en:Chapter 05
  97. 00:40:53.284                             : en:Chapter 06
  98. 00:46:53.227                             : en:Chapter 07
  99. 00:52:57.132                             : en:Chapter 08
  100. 01:00:56.278                             : en:Chapter 09
  101. 01:10:24.637                             : en:Chapter 10
  102. 01:23:22.789                             : en:Chapter 11
  103. 01:31:35.782                             : en:Chapter 12
  104. 01:36:39.377                             : en:Chapter 13
  105. 01:43:09.767                             : en:Chapter 14
  106. 01:52:41.296                             : en:Chapter 15
  107. 01:58:29.519                             : en:Chapter 16
  108. 02:15:14.398                             : en:Chapter 17
  109. 02:22:39.509                             : en:Chapter 18
  110. 02:30:18.510                             : en:Chapter 19
复制代码











回复

使用道具 举报

懒得打字嘛,点击右侧快捷回复 【右侧内容,后台自定义】
您需要登录后才可以回帖 登录 | 立即加入

本版积分规则

Archiver|小黑屋| 蓝光电影网 |网站地图

Copyright © 2021 Comsenz Inc. Powered by 蓝光电影网

蓝光电影网

本站内容由用户自主分享和转载自互联网,转载目的在于传递更多信息,并不代表本网赞同其观点和对其真实性负责。

如有侵权、违反国家法律政策行为,请联系我们,我们会第一时间及时清除和处理!

举报反馈邮箱:[email protected]

快速回复 返回顶部 返回列表