找回密码

蓝光电影网

查看: 17|回复: 0

[喜剧] 四月小姐.Miss.April.1958.SWEDISH.1080p.NF.WEBRip.AAC2.0.x264-NOGRP 7.43GB

[复制链接]
蓝光币
1080
发表于 2023-1-8 14:12:26 | 显示全部楼层 |阅读模式


◎标  题 四月蜜斯
◎译  名 Fröken April
◎片  名 Fröken April
◎年  代 1958
◎产  地 瑞典
◎类  别 笑剧
◎语  言 瑞典语
◎上映日期 1958-11-03(瑞典)
◎IMDb评分 6.2/10 (132人评价)
◎IMDb链接 https://www.imdb.com/title/tt0051641/
◎豆瓣链接 https://movie.douban.com/subject/5060724/
◎片  长 98 分钟
◎导  演 Göran Gentele Göran Gentele
◎编  剧 Göran Gentele Göran Gentele
◎演  员 约斯塔·普吕塞柳斯 Gösta Prüzelius
       约迪丝·彼得松 Hjördis Petterson
       西夫·鲁德 Sif Ruud
       Caj Selling Caj Selling
       Olof Sandborg Olof Sandborg
       Gaby Stenberg Gaby Stenberg
       Hans Strååt Hans Strååt
       Lena Söderblom Lena Söderblom
       乔治斯卡斯特德 Georg Skarstedt
       贝吉塔·瓦尔堡 Birgitta Valberg
       Tord Stål Tord Stål
       Meg Westergren Meg Westergren
       库尔特·勒夫格伦 Curt Löwgren
       Börje Mellvig Börje Mellvig
       Lena Madsén Lena Madsén
       帕尔·奥斯卡森 Per Oscarsson
       古纳尔·布约恩施特兰德 Gunnar Björnstrand
       Sven Nilsson Sven Nilsson
       Kurt Bendix Kurt Bendix
       Frithiof Bjärne Frithiof Bjärne
       拉斯·埃克伯格 Lars Ekborg
       本特·埃克隆德 Bengt Eklund
       Björn Gustafson Björn Gustafson
       Sven Holmberg Sven Holmberg
       Carl-Axel Hallgren Carl-Axel Hallgren
       Sten Hedlund Sten Hedlund
       道格拉斯·霍格 Douglas Håge
       Vincent Jonasson Vincent Jonasson
       亚尔·库勒 Jarl Kulle
       Ivar Wahlgren Ivar Wahlgren
       Harry Arnold Harry Arnold
       Wic Kjellin Wic Kjellin
       Arne Åkermark Arne Åkermark
       Bertil Duroj Bertil Duroj
       Gunilla Pontén Gunilla Pontén
       本特·奥特希尔 Bengt Ottekil
  1. Video
  2. ID                                       : 1
  3. Format                                   : AVC
  4. Format/Info                              : Advanced Video Codec
  5. Format profile                           : [email protected]
  6. Format settings                          : CABAC / 1 Ref Frames
  7. Format settings, CABAC                   : Yes
  8. Format settings, Reference frames        : 1 frame
  9. Codec ID                                 : V_MPEG4/ISO/AVC
  10. Duration                                 : 1 h 40 min
  11. Bit rate mode                            : Variable
  12. Bit rate                                 : 10.5 Mb/s
  13. Maximum bit rate                         : 6 000 kb/s
  14. Width                                    : 1 920 pixels
  15. Height                                   : 1 080 pixels
  16. Display aspect ratio                     : 16:9
  17. Frame rate mode                          : Constant
  18. Frame rate                               : 24.000 FPS
  19. Color space                              : YUV
  20. Chroma subsampling                       : 4:2:0
  21. Bit depth                                : 8 bits
  22. Scan type                                : Progressive
  23. Bits/(Pixel*Frame)                       : 0.211
  24. Stream size                              : 7.34 GiB (99%)
  25. Language                                 : Swedish
  26. Default                                  : Yes
  27. Forced                                   : No
  28. Audio
  29. ID                                       : 2
  30. Format                                   : AAC LC SBR
  31. Format/Info                              : Advanced Audio Codec Low Complexity with Spectral Band Replication
  32. Commercial name                          : HE-AAC
  33. Format settings                          : Explicit
  34. Codec ID                                 : A_AAC-2
  35. Duration                                 : 1 h 40 min
  36. Bit rate                                 : 128 kb/s
  37. Channel(s)                               : 2 channels
  38. Channel layout                           : L R
  39. Sampling rate                            : 48.0 kHz
  40. Frame rate                               : 23.438 FPS (2048 SPF)
  41. Compression mode                         : Lossy
  42. Stream size                              : 91.6 MiB (1%)
  43. Language                                 : Swedish
  44. Default                                  : Yes
  45. Forced                                   : No
  46. Text #1
  47. ID                                       : 3
  48. Format                                   : UTF-8
  49. Codec ID                                 : S_TEXT/UTF8
  50. Codec ID/Info                            : UTF-8 Plain Text
  51. Duration                                 : 1 h 38 min
  52. Bit rate                                 : 45 b/s
  53. Frame rate                               : 0.180 FPS
  54. Count of elements                        : 1067
  55. Stream size                              : 33.0 KiB (0%)
  56. Language                                 : English
  57. Default                                  : Yes
  58. Forced                                   : No
  59. Text #2
  60. ID                                       : 4
  61. Format                                   : UTF-8
  62. Codec ID                                 : S_TEXT/UTF8
  63. Codec ID/Info                            : UTF-8 Plain Text
  64. Duration                                 : 1 h 38 min
  65. Bit rate                                 : 47 b/s
  66. Frame rate                               : 0.180 FPS
  67. Count of elements                        : 1067
  68. Stream size                              : 34.0 KiB (0%)
  69. Title                                    : (Castilian)
  70. Language                                 : Spanish
  71. Default                                  : No
  72. Forced                                   : No
  73. Text #3
  74. ID                                       : 5
  75. Format                                   : UTF-8
  76. Codec ID                                 : S_TEXT/UTF8
  77. Codec ID/Info                            : UTF-8 Plain Text
  78. Duration                                 : 1 h 38 min
  79. Bit rate                                 : 52 b/s
  80. Frame rate                               : 0.173 FPS
  81. Count of elements                        : 1024
  82. Stream size                              : 37.9 KiB (0%)
  83. Language                                 : French
  84. Default                                  : No
  85. Forced                                   : No
  86. Text #4
  87. ID                                       : 6
  88. Format                                   : UTF-8
  89. Codec ID                                 : S_TEXT/UTF8
  90. Codec ID/Info                            : UTF-8 Plain Text
  91. Duration                                 : 1 h 38 min
  92. Bit rate                                 : 46 b/s
  93. Frame rate                               : 0.180 FPS
  94. Count of elements                        : 1065
  95. Stream size                              : 33.5 KiB (0%)
  96. Language                                 : Hungarian
  97. Default                                  : No
  98. Forced                                   : No
  99. Text #5
  100. ID                                       : 7
  101. Format                                   : UTF-8
  102. Codec ID                                 : S_TEXT/UTF8
  103. Codec ID/Info                            : UTF-8 Plain Text
  104. Duration                                 : 1 h 38 min
  105. Bit rate                                 : 49 b/s
  106. Frame rate                               : 0.179 FPS
  107. Count of elements                        : 1062
  108. Stream size                              : 35.7 KiB (0%)
  109. Language                                 : Romanian
  110. Default                                  : No
  111. Forced                                   : No
  112. Text #6
  113. ID                                       : 8
  114. Format                                   : UTF-8
  115. Codec ID                                 : S_TEXT/UTF8
  116. Codec ID/Info                            : UTF-8 Plain Text
  117. Duration                                 : 1 h 36 min
  118. Bit rate                                 : 60 b/s
  119. Frame rate                               : 0.190 FPS
  120. Count of elements                        : 1098
  121. Stream size                              : 42.6 KiB (0%)
  122. Title                                    : (SDH)
  123. Language                                 : Swedish
  124. Default                                  : No
  125. Forced                                   : No
复制代码











回复

使用道具 举报

懒得打字嘛,点击右侧快捷回复 【右侧内容,后台自定义】
您需要登录后才可以回帖 登录 | 立即加入

本版积分规则

Archiver|小黑屋| 蓝光电影网 |网站地图

Copyright © 2021 Comsenz Inc. Powered by 蓝光电影网

蓝光电影网

本站内容由用户自主分享和转载自互联网,转载目的在于传递更多信息,并不代表本网赞同其观点和对其真实性负责。

如有侵权、违反国家法律政策行为,请联系我们,我们会第一时间及时清除和处理!

举报反馈邮箱:[email protected]

快速回复 返回顶部 返回列表