找回密码

蓝光电影网

查看: 28|回复: 0

[喜剧] 神勇飞虎霸王花[国语音轨].The.Inspector.Wears.Skirts.2.1989.CHINESE.ENSUBBED.1080p.AMZN.WEBRip.DDP2.0.x264-RSG 9.46GB

[复制链接]
蓝光币
1084
发表于 2023-1-8 14:12:27 | 显示全部楼层 |阅读模式


◎标  题 神勇飞虎霸王花
◎译  名 The Inspector Wears Skirts II
◎片  名 神勇飛虎霸王花
◎年  代 1989
◎产  地 中国香港
◎类  别 笑剧 / 行动
◎语  言 粤语
◎上映日期 1989年1月28日
◎IMDb评分 5.3/10 (138人评价)
◎IMDb链接 https://www.imdb.com/title/tt0098312/
◎豆瓣评分 6.9/10 (7221人评价)
◎豆瓣链接 https://movie.douban.com/subject/1305016/
◎片  长 分钟
◎导  演 钱升玮
◎编  剧 邝文伟
       李敏才
◎演  员 胡慧中
       冯淬帆
       吴君如
       惠英红
       罗美薇
       叶子楣
       楼南光
       黄锦燊
       刘玉婷
       火星
       梁韵蕊
       张耀华
       简慧真
       卢惠光
       陈佩珊
◎简  介
  Amy(吴君如 饰)荣立功勋将Madam胡(胡慧中 饰)肆意整治,醒来后却发现是春梦一场……霸王花队伍迎来了Susanna(叶子楣 饰)、Joey(罗美薇 饰)等新颖血液,Amy与May(惠英红 饰)众人怎能放过拿新人寻高兴的好机遇?因而霸王花营地一时一触即发,后经相互领会终究分歧决议为Madam胡筹办生日宴会。飞虎队简Sir(冯淬帆 饰)对Madam胡一往情深,惋惜嘴拙舌笨一向落于合作者卢Sir(黄锦燊 饰)以后,此次生日宴自然是表示的大好机遇,以阿南(楼南光 饰)为首的一班飞虎队亦对此次集会兴趣勃勃,搞出笑料连场。
                                    
                                未几国际可骇份子金毛狮一伙赴港搭救朋友,霸王花与飞虎队携手反击,而简Sir终究在此次行动中迎来了自己的恋爱……
  1. Video
  2. ID                                       : 1
  3. Format                                   : AVC
  4. Format/Info                              : Advanced Video Codec
  5. Format profile                           : [email protected]
  6. Format settings                          : CABAC / 4 Ref Frames
  7. Format settings, CABAC                   : Yes
  8. Format settings, Reference frames        : 4 frames
  9. Codec ID                                 : V_MPEG4/ISO/AVC
  10. Duration                                 : 1 h 36 min
  11. Bit rate                                 : 13.8 Mb/s
  12. Width                                    : 1 920 pixels
  13. Height                                   : 1 080 pixels
  14. Display aspect ratio                     : 16:9
  15. Frame rate mode                          : Constant
  16. Frame rate                               : 23.976 (24000/1001) FPS
  17. Color space                              : YUV
  18. Chroma subsampling                       : 4:2:0
  19. Bit depth                                : 8 bits
  20. Scan type                                : Progressive
  21. Bits/(Pixel*Frame)                       : 0.278
  22. Stream size                              : 9.31 GiB (98%)
  23. Title                                    : The.Inspector.Wears.Skirts.2.1989.1080p.AMZN.HC.WEB-DL.DDP2.0.H.264-RSG
  24. Default                                  : Yes
  25. Forced                                   : No
  26. Color range                              : Limited
  27. Color primaries                          : BT.709
  28. Transfer characteristics                 : BT.709
  29. Matrix coefficients                      : BT.709
  30. Audio
  31. ID                                       : 2
  32. Format                                   : E-AC-3
  33. Format/Info                              : Enhanced AC-3
  34. Commercial name                          : Dolby Digital Plus
  35. Codec ID                                 : A_EAC3
  36. Duration                                 : 1 h 36 min
  37. Bit rate mode                            : Constant
  38. Bit rate                                 : 224 kb/s
  39. Channel(s)                               : 2 channels
  40. Channel layout                           : L R
  41. Sampling rate                            : 48.0 kHz
  42. Frame rate                               : 31.250 FPS (1536 SPF)
  43. Compression mode                         : Lossy
  44. Stream size                              : 155 MiB (2%)
  45. Title                                    : The.Inspector.Wears.Skirts.2.1989.1080p.AMZN.HC.WEB-DL.DDP2.0.H.264-RSG
  46. Language                                 : Chinese
  47. Service kind                             : Complete Main
  48. Default                                  : Yes
  49. Forced                                   : No
  50. Text
  51. ID                                       : 3
  52. Format                                   : UTF-8
  53. Codec ID                                 : S_TEXT/UTF8
  54. Codec ID/Info                            : UTF-8 Plain Text
  55. Duration                                 : 1 h 33 min
  56. Bit rate                                 : 9 b/s
  57. Frame rate                               : 0.071 FPS
  58. Count of elements                        : 398
  59. Stream size                              : 6.24 KiB (0%)
  60. Title                                    : English SDH
  61. Language                                 : English
  62. Default                                  : Yes
  63. Forced                                   : No
复制代码











回复

使用道具 举报

懒得打字嘛,点击右侧快捷回复 【右侧内容,后台自定义】
您需要登录后才可以回帖 登录 | 立即加入

本版积分规则

Archiver|小黑屋| 蓝光电影网 |网站地图

Copyright © 2021 Comsenz Inc. Powered by 蓝光电影网

蓝光电影网

本站内容由用户自主分享和转载自互联网,转载目的在于传递更多信息,并不代表本网赞同其观点和对其真实性负责。

如有侵权、违反国家法律政策行为,请联系我们,我们会第一时间及时清除和处理!

举报反馈邮箱:[email protected]

快速回复 返回顶部 返回列表