找回密码

蓝光电影网

查看: 18|回复: 0

[剧情] 特征:无.Identification.Marks.None.1965.POLISH.1080p.WEBRip.AAC2.0.x264-KUCHU 2.86GB

[复制链接]
蓝光币
1082
发表于 2023-1-8 14:12:28 | 显示全部楼层 |阅读模式


◎译  名 特征:无 / Identification Marks: None
◎片  名 Rysopis
◎年  代 1965
◎产  地 波兰
◎类  别 剧情
◎语  言 波兰语
◎上映日期 1965-11-18(波兰)
◎IMDb链接 https://www.imdb.com/title/tt0059668/
◎豆瓣评分 7.1/10 (89人评价)
◎豆瓣链接 https://movie.douban.com/subject/3380974/
◎片  长 Argentina: 80 分钟
◎导  演 杰兹·斯科利莫夫斯基 Jerzy Skolimowski
◎编  剧 杰兹·斯科利莫夫斯基 Jerzy Skolimowski
◎演  员 杰兹·斯科利莫夫斯基 Jerzy Skolimowski
       埃尔兹别塔·奇日弗斯卡 Elzbieta Czyzewska
       塔德乌什·明茨 Tadeusz Minc
       Jacek Szczek Jacek Szczek
       安杰伊·扎尔内茨基 Andrzej Zarnecki
       Krzysztof Sadowski Krzysztof Sadowski
       Witold Mickiewicz Witold Mickiewicz
       杰兹·斯科利莫夫斯基 Jerzy Skolimowski
◎简  介
  1965年荷蘭阿納姆電影節大獎                                       
                                    史高林莫斯基含自傳成份的第一部片,描寫一偛粷M現狀的青年(史高林莫斯基親自饰演)在半天裡的心路歷程。安德烈要在短短數小時內決定參加為期兩年的兵役,抑或繼續學業和面對現實的社會?安德烈一向將他的身份與布景隱藏,不想向任何人揭穿,就算同居女友泰蕾莎對他亦一無所知。安德烈與泰蕾莎之間的隔閡,恰好暗示兩人之間面臨決裂。雖然安德烈答應接見他的軍官會依時報到,但冷靜下來時卻盤算有沒有其他值得留下的来由。即使有太多的失望與挫折:與泰蕾莎的愛情生活不快意,愛犬又因染上瘋狗症而被人性毀滅,安德烈並沒有準備離去的跡象,只是尽力地找尋留下來的藉口。當安德烈不斷與他的朋友碰面,時間逐漸磨灭,他亦不斷進行自我的鬥爭。影片發展下去,這傁駢艟骋话愕穆贸蹋瑵u漸演變成找尋自我的心路歷程。史高林莫斯基的電影皆以年轻人面對的社會問題為中心,對心態的刻劃十...
  1. Video
  2. ID                                       : 1
  3. Format                                   : AVC
  4. Format/Info                              : Advanced Video Codec
  5. Format profile                           : [email protected]
  6. Format settings                          : CABAC / 4 Ref Frames
  7. Format settings, CABAC                   : Yes
  8. Format settings, Reference frames        : 4 frames
  9. Codec ID                                 : V_MPEG4/ISO/AVC
  10. Duration                                 : 1 h 12 min
  11. Bit rate mode                            : Constant
  12. Bit rate                                 : 5 500 kb/s
  13. Width                                    : 1 920 pixels
  14. Height                                   : 1 080 pixels
  15. Display aspect ratio                     : 16:9
  16. Frame rate mode                          : Constant
  17. Frame rate                               : 25.000 FPS
  18. Color space                              : YUV
  19. Chroma subsampling                       : 4:2:0
  20. Bit depth                                : 8 bits
  21. Scan type                                : Progressive
  22. Bits/(Pixel*Frame)                       : 0.106
  23. Stream size                              : 2.74 GiB (96%)
  24. Writing library                          : x264 core 155 r2917 0a84d98
  25. Encoding settings                        : cabac=1 / ref=3 / deblock=1:-1:-1 / analyse=0x3:0x113 / me=hex / subme=8 / psy=1 / psy_rd=1.00:0.15 / mixed_ref=1 / me_range=16 / chroma_me=1 / trellis=2 / 8x8dct=1 / cqm=0 / deadzone=21,11 / fast_pskip=1 / chroma_qp_offset=-3 / threads=24 / lookahead_threads=4 / sliced_threads=0 / nr=0 / decimate=1 / interlaced=0 / bluray_compat=0 / constrained_intra=0 / bframes=5 / b_pyramid=2 / b_adapt=1 / b_bias=0 / direct=3 / weightb=1 / open_gop=0 / weightp=2 / keyint=50 / keyint_min=26 / scenecut=0 / intra_refresh=0 / rc_lookahead=50 / rc=cbr / mbtree=1 / bitrate=5500 / ratetol=1.0 / qcomp=0.60 / qpmin=0 / qpmax=69 / qpstep=4 / vbv_maxrate=5500 / vbv_bufsize=11000 / nal_hrd=cbr / filler=1 / ip_ratio=1.40 / aq=1:1.00
  26. Language                                 : Polish
  27. Default                                  : Yes
  28. Forced                                   : No
  29. Audio
  30. ID                                       : 2
  31. Format                                   : AAC LC
  32. Format/Info                              : Advanced Audio Codec Low Complexity
  33. Codec ID                                 : A_AAC-2
  34. Duration                                 : 1 h 12 min
  35. Bit rate                                 : 231 kb/s
  36. Channel(s)                               : 2 channels
  37. Channel layout                           : L R
  38. Sampling rate                            : 48.0 kHz
  39. Frame rate                               : 46.875 FPS (1024 SPF)
  40. Compression mode                         : Lossy
  41. Stream size                              : 119 MiB (4%)
  42. Language                                 : Polish
  43. Default                                  : Yes
  44. Forced                                   : No
  45. Text #1
  46. ID                                       : 3
  47. Format                                   : UTF-8
  48. Codec ID                                 : S_TEXT/UTF8
  49. Codec ID/Info                            : UTF-8 Plain Text
  50. Duration                                 : 1 h 10 min
  51. Bit rate                                 : 64 b/s
  52. Frame rate                               : 0.244 FPS
  53. Count of elements                        : 1029
  54. Stream size                              : 33.0 KiB (0%)
  55. Language                                 : English
  56. Default                                  : Yes
  57. Forced                                   : No
  58. Text #2
  59. ID                                       : 4
  60. Format                                   : UTF-8
  61. Codec ID                                 : S_TEXT/UTF8
  62. Codec ID/Info                            : UTF-8 Plain Text
  63. Duration                                 : 1 h 10 min
  64. Bit rate                                 : 75 b/s
  65. Frame rate                               : 0.245 FPS
  66. Count of elements                        : 1031
  67. Stream size                              : 38.6 KiB (0%)
  68. Language                                 : German
  69. Default                                  : No
  70. Forced                                   : No
  71. Text #3
  72. ID                                       : 5
  73. Format                                   : UTF-8
  74. Codec ID                                 : S_TEXT/UTF8
  75. Codec ID/Info                            : UTF-8 Plain Text
  76. Duration                                 : 1 h 10 min
  77. Bit rate                                 : 62 b/s
  78. Frame rate                               : 0.240 FPS
  79. Count of elements                        : 1015
  80. Stream size                              : 32.2 KiB (0%)
  81. Language                                 : Spanish
  82. Default                                  : No
  83. Forced                                   : No
  84. Text #4
  85. ID                                       : 6
  86. Format                                   : UTF-8
  87. Codec ID                                 : S_TEXT/UTF8
  88. Codec ID/Info                            : UTF-8 Plain Text
  89. Duration                                 : 1 h 10 min
  90. Bit rate                                 : 74 b/s
  91. Frame rate                               : 0.244 FPS
  92. Count of elements                        : 1030
  93. Stream size                              : 38.3 KiB (0%)
  94. Language                                 : French
  95. Default                                  : No
  96. Forced                                   : No
  97. Text #5
  98. ID                                       : 7
  99. Format                                   : UTF-8
  100. Codec ID                                 : S_TEXT/UTF8
  101. Codec ID/Info                            : UTF-8 Plain Text
  102. Duration                                 : 1 h 9 min
  103. Bit rate                                 : 60 b/s
  104. Frame rate                               : 0.241 FPS
  105. Count of elements                        : 1005
  106. Stream size                              : 30.9 KiB (0%)
  107. Language                                 : Italian
  108. Default                                  : No
  109. Forced                                   : No
  110. Text #6
  111. ID                                       : 8
  112. Format                                   : UTF-8
  113. Codec ID                                 : S_TEXT/UTF8
  114. Codec ID/Info                            : UTF-8 Plain Text
  115. Duration                                 : 1 h 11 min
  116. Bit rate                                 : 63 b/s
  117. Frame rate                               : 0.240 FPS
  118. Count of elements                        : 1032
  119. Stream size                              : 33.5 KiB (0%)
  120. Language                                 : Portuguese
  121. Default                                  : No
  122. Forced                                   : No
复制代码











回复

使用道具 举报

懒得打字嘛,点击右侧快捷回复 【右侧内容,后台自定义】
您需要登录后才可以回帖 登录 | 立即加入

本版积分规则

Archiver|小黑屋| 蓝光电影网 |网站地图

Copyright © 2021 Comsenz Inc. Powered by 蓝光电影网

蓝光电影网

本站内容由用户自主分享和转载自互联网,转载目的在于传递更多信息,并不代表本网赞同其观点和对其真实性负责。

如有侵权、违反国家法律政策行为,请联系我们,我们会第一时间及时清除和处理!

举报反馈邮箱:[email protected]

快速回复 返回顶部 返回列表