找回密码

蓝光电影网

查看: 20|回复: 0

[剧情] 球场争霸战.The.Sporting.Club.1971.1080p.WEBRip.x264-RARBG 1.98GB

[复制链接]
蓝光币
1084
发表于 2023-1-8 14:12:29 | 显示全部楼层 |阅读模式


◎标  题 球场争霸战
◎片  名 The Sporting Club
◎年  代 1971
◎产  地 美国
◎类  别 剧情 / 笑剧 / 活动
◎语  言 英语
◎上映日期 1971
◎IMDb评分 5.5/10 (92人评价)
◎IMDb链接 https://www.imdb.com/title/tt0067783/
◎豆瓣链接 https://movie.douban.com/subject/5055545/
◎片  长 107 分钟
◎导  演 拉里·皮尔斯 Larry Peerce
◎编  剧 托马斯·麦瓜恩 Thomas McGuane
◎演  员 尼古拉斯·科斯特 Nicolas Coster
       玛格丽特·布赖 Margaret Blye
       杰克·瓦尔登 Jack Warden
       理查德·戴萨特 Richard Dysart
        Larry Deer
       Leon B. Stevens Leon B. Stevens
       John Seymour John Seymour
       洛根·拉姆齐 Logan Ramsey
       William Roerick William Roerick
       Diane Rousseau Diane Rousseau
       詹姆斯·诺贝尔 James Noble
       琳达·布莱尔 Linda Blair
       乔安·哈里斯 Jo Ann Harris
       罗伯特·菲尔兹 Robert Fields
       拉尔夫·韦特 Ralph Waite
       Claiborne Cary Claiborne Cary
       Helen Craig Helen Craig
       安妮·拉姆塞 Anne Ramsey
       Lee Rich Lee Rich
       迈克尔·斯莫 Michael Small
       罗恩·塔尔斯基 Ron Talsky
       Emile LaVigne Emile LaVigne
  1. Video
  2. ID                                       : 1
  3. Format                                   : AVC
  4. Format/Info                              : Advanced Video Codec
  5. Format profile                           : Hi[email protected]
  6. Format settings                          : CABAC / 4 Ref Frames
  7. Format settings, CABAC                   : Yes
  8. Format settings, Reference frames        : 4 frames
  9. Codec ID                                 : avc1
  10. Codec ID/Info                            : Advanced Video Coding
  11. Duration                                 : 1 h 43 min
  12. Bit rate                                 : 2 500 kb/s
  13. Width                                    : 1 920 pixels
  14. Height                                   : 1 036 pixels
  15. Display aspect ratio                     : 1.85:1
  16. Frame rate mode                          : Constant
  17. Frame rate                               : 30.000 FPS
  18. Color space                              : YUV
  19. Chroma subsampling                       : 4:2:0
  20. Bit depth                                : 8 bits
  21. Scan type                                : Progressive
  22. Bits/(Pixel*Frame)                       : 0.042
  23. Stream size                              : 1.81 GiB (91%)
  24. Writing library                          : x264 core 152 r2851M ba24899
  25. Encoding settings                        : cabac=1 / ref=4 / deblock=1:-1:-1 / analyse=0x3:0x113 / me=umh / subme=9 / psy=1 / psy_rd=1.00:0.15 / mixed_ref=1 / me_range=24 / chroma_me=1 / trellis=2 / 8x8dct=1 / cqm=0 / deadzone=21,11 / fast_pskip=1 / chroma_qp_offset=-3 / threads=16 / lookahead_threads=4 / sliced_threads=0 / nr=0 / decimate=1 / interlaced=0 / bluray_compat=0 / constrained_intra=0 / bframes=3 / b_pyramid=2 / b_adapt=2 / b_bias=0 / direct=3 / weightb=1 / open_gop=0 / weightp=2 / keyint=250 / keyint_min=25 / scenecut=40 / intra_refresh=0 / rc_lookahead=50 / rc=2pass / mbtree=1 / bitrate=2500 / ratetol=1.0 / qcomp=0.60 / qpmin=0 / qpmax=69 / qpstep=4 / cplxblur=20.0 / qblur=0.5 / vbv_maxrate=31250 / vbv_bufsize=31250 / nal_hrd=none / filler=0 / ip_ratio=1.40 / aq=3:1.00
  26. Encoded date                             : UTC 2023-01-07 15:57:48
  27. Tagged date                              : UTC 2023-01-07 15:57:48
  28. Codec configuration box                  : avcC
  29. Audio
  30. ID                                       : 2
  31. Format                                   : AAC LC
  32. Format/Info                              : Advanced Audio Codec Low Complexity
  33. Codec ID                                 : mp4a-40-2
  34. Duration                                 : 1 h 43 min
  35. Bit rate mode                            : Constant
  36. Bit rate                                 : 224 kb/s
  37. Channel(s)                               : 2 channels
  38. Channel layout                           : L R
  39. Sampling rate                            : 44.1 kHz
  40. Frame rate                               : 43.066 FPS (1024 SPF)
  41. Compression mode                         : Lossy
  42. Stream size                              : 166 MiB (8%)
  43. Language                                 : English
  44. Default                                  : Yes
  45. Alternate group                          : 1
  46. Encoded date                             : UTC 2023-01-07 15:57:48
  47. Tagged date                              : UTC 2023-01-07 15:57:48
复制代码











回复

使用道具 举报

懒得打字嘛,点击右侧快捷回复 【右侧内容,后台自定义】
您需要登录后才可以回帖 登录 | 立即加入

本版积分规则

Archiver|小黑屋| 蓝光电影网 |网站地图

Copyright © 2021 Comsenz Inc. Powered by 蓝光电影网

蓝光电影网

本站内容由用户自主分享和转载自互联网,转载目的在于传递更多信息,并不代表本网赞同其观点和对其真实性负责。

如有侵权、违反国家法律政策行为,请联系我们,我们会第一时间及时清除和处理!

举报反馈邮箱:[email protected]

快速回复 返回顶部 返回列表