找回密码

蓝光电影网

查看: 19|回复: 0

[剧情] 我们的追星之路.Our.Huff.and.Puff.Journey.2015.JAPANESE.1080p.WEBRip.AAC2.0.x264-NOGRP 2.62GB

[复制链接]
蓝光币
1080
发表于 2023-1-8 22:11:01 | 显示全部楼层 |阅读模式


◎译  名 我们的追星之路 / 我们的喘息 / Watashitachi no Haa Haa / Our Huff and Puff Journey
◎片  名 私たちのハァハァ
◎年  代 2015
◎产  地 日本
◎类  别 剧情 / 儿童
◎语  言 日语
◎上映日期 2015-09-12(日本)
◎IMDb链接 https://www.imdb.com/title/tt4181938/
◎豆瓣评分 6.8/10 (429人评价)
◎豆瓣链接 https://movie.douban.com/subject/26021921/
◎片  长 90分钟
◎导  演 松居大悟 Daigo Matsui
◎编  剧 舘そらみ Sorami Date
       松居大悟 Daigo Matsui
◎演  员 井上苑子 Sonoko Inoue
       三浦透子 Touko Miura
       武田杏香 Kyoka Takeda
       池松壮亮 Sosuke Ikematsu
       中村映里子 Eriko Nakamura
◎简  介
  报告为了去看心爱乐队的现场演唱会,4个高中女生骑自行车从北九州横跨1000千米去往东京的青春公路电影。摇滚乐队クリープハイプ(CreepHyp)将担任片中的音乐建造,并在片中本质出演
  1. Video
  2. ID                                       : 1
  3. Format                                   : AVC
  4. Format/Info                              : Advanced Video Codec
  5. Format profile                           : [email protected]
  6. Format settings                          : CABAC / 2 Ref Frames
  7. Format settings, CABAC                   : Yes
  8. Format settings, Reference frames        : 2 frames
  9. Codec ID                                 : V_MPEG4/ISO/AVC
  10. Duration                                 : 1 h 30 min
  11. Bit rate                                 : 4 020 kb/s
  12. Width                                    : 1 920 pixels
  13. Height                                   : 1 080 pixels
  14. Display aspect ratio                     : 16:9
  15. Frame rate mode                          : Constant
  16. Frame rate                               : 23.976 (23976/1000) FPS
  17. Color space                              : YUV
  18. Chroma subsampling                       : 4:2:0
  19. Bit depth                                : 8 bits
  20. Scan type                                : Progressive
  21. Bits/(Pixel*Frame)                       : 0.081
  22. Stream size                              : 2.54 GiB (97%)
  23. Writing library                          : x264 core 148 r2665kMod a01e339
  24. Encoding settings                        : cabac=1 / ref=2 / deblock=1:1:1 / analyse=0x1:0x111 / me=tesa / subme=11 / psy=1 / fade_compensate=0.00 / psy_rd=0.40:0.10 / mixed_ref=1 / me_range=48 / chroma_me=1 / trellis=2 / 8x8dct=0 / cqm=0 / deadzone=21,11 / fast_pskip=1 / chroma_qp_offset=-3 / threads=12 / lookahead_threads=1 / sliced_threads=0 / nr=0 / decimate=1 / interlaced=0 / bluray_compat=0 / constrained_intra=0 / fgo=0 / bframes=2 / b_pyramid=0 / b_adapt=2 / b_bias=0 / direct=3 / weightb=1 / open_gop=0 / weightp=2 / keyint=48 / keyint_min=25 / scenecut=0 / intra_refresh=0 / rc_lookahead=48 / rc=2pass / mbtree=1 / bitrate=4020 / ratetol=1.0 / qcomp=0.80 / qpmin=10 / qpmax=69 / qpstep=15 / cplxblur=20.0 / qblur=0.5 / vbv_maxrate=8050 / vbv_bufsize=8050 / nal_hrd=none / filler=0 / ip_ratio=1.40 / aq=2:0.60
  25. Default                                  : Yes
  26. Forced                                   : No
  27. Audio
  28. ID                                       : 2
  29. Format                                   : AAC LC
  30. Format/Info                              : Advanced Audio Codec Low Complexity
  31. Codec ID                                 : A_AAC-2
  32. Duration                                 : 1 h 30 min
  33. Bit rate                                 : 125 kb/s
  34. Channel(s)                               : 2 channels
  35. Channel layout                           : L R
  36. Sampling rate                            : 48.0 kHz
  37. Frame rate                               : 46.875 FPS (1024 SPF)
  38. Compression mode                         : Lossy
  39. Stream size                              : 81.5 MiB (3%)
  40. Language                                 : Japanese
  41. Default                                  : Yes
  42. Forced                                   : No
  43. Text
  44. ID                                       : 3
  45. Format                                   : UTF-8
  46. Codec ID                                 : S_TEXT/UTF8
  47. Codec ID/Info                            : UTF-8 Plain Text
  48. Duration                                 : 1 h 30 min
  49. Bit rate                                 : 55 b/s
  50. Frame rate                               : 0.222 FPS
  51. Count of elements                        : 1204
  52. Stream size                              : 36.4 KiB (0%)
  53. Language                                 : English
  54. Default                                  : No
  55. Forced                                   : No
复制代码











回复

使用道具 举报

懒得打字嘛,点击右侧快捷回复 【右侧内容,后台自定义】
您需要登录后才可以回帖 登录 | 立即加入

本版积分规则

Archiver|小黑屋| 蓝光电影网 |网站地图

Copyright © 2021 Comsenz Inc. Powered by 蓝光电影网

蓝光电影网

本站内容由用户自主分享和转载自互联网,转载目的在于传递更多信息,并不代表本网赞同其观点和对其真实性负责。

如有侵权、违反国家法律政策行为,请联系我们,我们会第一时间及时清除和处理!

举报反馈邮箱:[email protected]

快速回复 返回顶部 返回列表