找回密码

蓝光电影网

查看: 149|回复: 6

[2160p-WEB] 一落千丈:波音大调查[中文字幕].Downfall.The.Case.Against.Boeing.2022.2160p.NF.WEB-DL.x265.10bit.SDR.DDP5.1-SMURF 7.70GB

[复制链接]
蓝光币
1084
发表于 2023-1-8 22:27:54 | 显示全部楼层 |阅读模式


◎标  题 一落千丈:波音大观察
◎译  名 坠:波音大观察(台)
◎片  名 Downfall: The Case Against Boeing
◎年  代 2022
◎产  地 美国
◎类  别 记载片
◎语  言 英语
◎上映日期 2022-02-18(美国)
◎IMDb评分 7.4/10 (11552人评价)
◎IMDb链接 https://www.imdb.com/title/tt11893274/
◎豆瓣评分 8.2/10 (9486人评价)
◎豆瓣链接 https://movie.douban.com/subject/35694785/
◎片  长 89分钟
◎导  演 罗瑞·肯尼迪 Rory Kennedy
◎编  剧 马克·贝利 Mark Bailey
       凯文·麦卡莱斯特 Keven McAlester
◎演  员 莱斯特·赫特 Lester Holt
       玛丽亚·巴尔蒂罗莫 Maria Bartiromo
       Peter Jennings Peter Jennings
       切斯利·舒伦伯格 Chesley Sullenberger
       理查德·恩格尔 Richard Engel
       Peter A. DeFazio Peter A. DeFazio
       唐纳德·特朗普 Donald Trump
       赵小兰 Elaine L. Chao
◎简  介
  在《一落千丈:波音大观察》这部使人毛骨悚然的记载片中,曾获奥斯卡提名的电影人罗瑞·肯尼迪揭穿了企业对题目标漠视和贪心若何致使两架波音 MAX 737 飞机在短短五个月内相继失事。在航空专家、消息记者、前波音职员、美国国会和受害者家属的主导下,这部电影揭开了一家已经备受推重的公司背后一味削减本钱和掩人线人的文化。《一落千丈:波音大观察》痛斥来自华尔街的废弛影响,并指出美国企业所秉持的理念的危险之处 — 偶然这甚至事关人命。本片由罗瑞·肯尼迪执导和建造,马克·贝利建造和结合编剧,布莱恩·格拉泽和朗·霍华德监制。
  1. Video
  2. ID                                       : 1
  3. Format                                   : HEVC
  4. Format/Info                              : High Efficiency Video Coding
  5. Format profile                           : Main [email protected]@Main
  6. Codec ID                                 : V_MPEGH/ISO/HEVC
  7. Duration                                 : 1 h 30 min
  8. Bit rate                                 : 11.6 Mb/s
  9. Width                                    : 3 840 pixels
  10. Height                                   : 2 160 pixels
  11. Display aspect ratio                     : 16:9
  12. Frame rate mode                          : Constant
  13. Frame rate                               : 23.976 (24000/1001) FPS
  14. Color space                              : YUV
  15. Chroma subsampling                       : 4:2:0
  16. Bit depth                                : 10 bits
  17. Bits/(Pixel*Frame)                       : 0.058
  18. Stream size                              : 7.29 GiB (95%)
  19. Language                                 : English
  20. Default                                  : Yes
  21. Forced                                   : No
  22. Color range                              : Limited
  23. Color primaries                          : BT.709
  24. Transfer characteristics                 : BT.709
  25. Matrix coefficients                      : BT.709
  26. Audio
  27. ID                                       : 2
  28. Format                                   : E-AC-3
  29. Format/Info                              : Enhanced AC-3
  30. Commercial name                          : Dolby Digital Plus
  31. Codec ID                                 : A_EAC3
  32. Duration                                 : 1 h 30 min
  33. Bit rate mode                            : Constant
  34. Bit rate                                 : 640 kb/s
  35. Channel(s)                               : 6 channels
  36. Channel layout                           : L R C LFE Ls Rs
  37. Sampling rate                            : 48.0 kHz
  38. Frame rate                               : 31.250 FPS (1536 SPF)
  39. Compression mode                         : Lossy
  40. Stream size                              : 413 MiB (5%)
  41. Language                                 : English
  42. Service kind                             : Complete Main
  43. Default                                  : Yes
  44. Forced                                   : No
  45. Text #1
  46. ID                                       : 3
  47. Format                                   : UTF-8
  48. Codec ID                                 : S_TEXT/UTF8
  49. Codec ID/Info                            : UTF-8 Plain Text
  50. Duration                                 : 47 min 49 s
  51. Bit rate                                 : 3 b/s
  52. Frame rate                               : 0.009 FPS
  53. Count of elements                        : 25
  54. Stream size                              : 1.31 KiB (0%)
  55. Title                                    : Forced
  56. Language                                 : English
  57. Default                                  : Yes
  58. Forced                                   : Yes
  59. Text #2
  60. ID                                       : 4
  61. Format                                   : UTF-8
  62. Codec ID                                 : S_TEXT/UTF8
  63. Codec ID/Info                            : UTF-8 Plain Text
  64. Duration                                 : 1 h 25 min
  65. Bit rate                                 : 89 b/s
  66. Frame rate                               : 0.250 FPS
  67. Count of elements                        : 1285
  68. Stream size                              : 56.4 KiB (0%)
  69. Language                                 : English
  70. Default                                  : No
  71. Forced                                   : No
  72. Text #3
  73. ID                                       : 5
  74. Format                                   : UTF-8
  75. Codec ID                                 : S_TEXT/UTF8
  76. Codec ID/Info                            : UTF-8 Plain Text
  77. Duration                                 : 1 h 26 min
  78. Bit rate                                 : 93 b/s
  79. Frame rate                               : 0.256 FPS
  80. Count of elements                        : 1326
  81. Stream size                              : 59.5 KiB (0%)
  82. Title                                    : SDH
  83. Language                                 : English
  84. Default                                  : No
  85. Forced                                   : No
  86. Text #4
  87. ID                                       : 6
  88. Format                                   : UTF-8
  89. Codec ID                                 : S_TEXT/UTF8
  90. Codec ID/Info                            : UTF-8 Plain Text
  91. Duration                                 : 1 h 27 min
  92. Bit rate                                 : 139 b/s
  93. Frame rate                               : 0.253 FPS
  94. Count of elements                        : 1325
  95. Stream size                              : 89.2 KiB (0%)
  96. Language                                 : Arabic
  97. Default                                  : No
  98. Forced                                   : No
  99. Text #5
  100. ID                                       : 7
  101. Format                                   : UTF-8
  102. Codec ID                                 : S_TEXT/UTF8
  103. Codec ID/Info                            : UTF-8 Plain Text
  104. Duration                                 : 1 h 28 min
  105. Bit rate                                 : 87 b/s
  106. Frame rate                               : 0.249 FPS
  107. Count of elements                        : 1324
  108. Stream size                              : 56.7 KiB (0%)
  109. Language                                 : Czech
  110. Default                                  : No
  111. Forced                                   : No
  112. Text #6
  113. ID                                       : 8
  114. Format                                   : UTF-8
  115. Codec ID                                 : S_TEXT/UTF8
  116. Codec ID/Info                            : UTF-8 Plain Text
  117. Duration                                 : 1 h 28 min
  118. Bit rate                                 : 79 b/s
  119. Frame rate                               : 0.220 FPS
  120. Count of elements                        : 1170
  121. Stream size                              : 51.3 KiB (0%)
  122. Language                                 : Danish
  123. Default                                  : No
  124. Forced                                   : No
  125. Text #7
  126. ID                                       : 9
  127. Format                                   : UTF-8
  128. Codec ID                                 : S_TEXT/UTF8
  129. Codec ID/Info                            : UTF-8 Plain Text
  130. Duration                                 : 1 h 28 min
  131. Bit rate                                 : 88 b/s
  132. Frame rate                               : 0.260 FPS
  133. Count of elements                        : 1384
  134. Stream size                              : 57.5 KiB (0%)
  135. Language                                 : German
  136. Default                                  : No
  137. Forced                                   : No
  138. Text #8
  139. ID                                       : 10
  140. Format                                   : UTF-8
  141. Codec ID                                 : S_TEXT/UTF8
  142. Codec ID/Info                            : UTF-8 Plain Text
  143. Duration                                 : 1 h 27 min
  144. Bit rate                                 : 143 b/s
  145. Frame rate                               : 0.248 FPS
  146. Count of elements                        : 1297
  147. Stream size                              : 91.6 KiB (0%)
  148. Language                                 : Greek
  149. Default                                  : No
  150. Forced                                   : No
  151. Text #9
  152. ID                                       : 11
  153. Format                                   : UTF-8
  154. Codec ID                                 : S_TEXT/UTF8
  155. Codec ID/Info                            : UTF-8 Plain Text
  156. Duration                                 : 1 h 28 min
  157. Bit rate                                 : 81 b/s
  158. Frame rate                               : 0.232 FPS
  159. Count of elements                        : 1233
  160. Stream size                              : 52.8 KiB (0%)
  161. Title                                    : Latin American
  162. Language                                 : Spanish (Latin America)
  163. Default                                  : No
  164. Forced                                   : No
  165. Text #10
  166. ID                                       : 12
  167. Format                                   : UTF-8
  168. Codec ID                                 : S_TEXT/UTF8
  169. Codec ID/Info                            : UTF-8 Plain Text
  170. Duration                                 : 1 h 28 min
  171. Bit rate                                 : 79 b/s
  172. Frame rate                               : 0.250 FPS
  173. Count of elements                        : 1328
  174. Stream size                              : 51.5 KiB (0%)
  175. Language                                 : Spanish (ES)
  176. Default                                  : No
  177. Forced                                   : No
  178. Text #11
  179. ID                                       : 13
  180. Format                                   : UTF-8
  181. Codec ID                                 : S_TEXT/UTF8
  182. Codec ID/Info                            : UTF-8 Plain Text
  183. Duration                                 : 1 h 28 min
  184. Bit rate                                 : 81 b/s
  185. Frame rate                               : 0.209 FPS
  186. Count of elements                        : 1111
  187. Stream size                              : 52.9 KiB (0%)
  188. Language                                 : Finnish
  189. Default                                  : No
  190. Forced                                   : No
  191. Text #12
  192. ID                                       : 14
  193. Format                                   : UTF-8
  194. Codec ID                                 : S_TEXT/UTF8
  195. Codec ID/Info                            : UTF-8 Plain Text
  196. Duration                                 : 1 h 28 min
  197. Bit rate                                 : 84 b/s
  198. Frame rate                               : 0.244 FPS
  199. Count of elements                        : 1295
  200. Stream size                              : 54.8 KiB (0%)
  201. Language                                 : French
  202. Default                                  : No
  203. Forced                                   : No
  204. Text #13
  205. ID                                       : 15
  206. Format                                   : UTF-8
  207. Codec ID                                 : S_TEXT/UTF8
  208. Codec ID/Info                            : UTF-8 Plain Text
  209. Duration                                 : 1 h 28 min
  210. Bit rate                                 : 126 b/s
  211. Frame rate                               : 0.249 FPS
  212. Count of elements                        : 1325
  213. Stream size                              : 82.0 KiB (0%)
  214. Language                                 : Hebrew
  215. Default                                  : No
  216. Forced                                   : No
  217. Text #14
  218. ID                                       : 16
  219. Format                                   : UTF-8
  220. Codec ID                                 : S_TEXT/UTF8
  221. Codec ID/Info                            : UTF-8 Plain Text
  222. Duration                                 : 1 h 28 min
  223. Bit rate                                 : 72 b/s
  224. Frame rate                               : 0.241 FPS
  225. Count of elements                        : 1279
  226. Stream size                              : 47.1 KiB (0%)
  227. Language                                 : Croatian
  228. Default                                  : No
  229. Forced                                   : No
  230. Text #15
  231. ID                                       : 17
  232. Format                                   : UTF-8
  233. Codec ID                                 : S_TEXT/UTF8
  234. Codec ID/Info                            : UTF-8 Plain Text
  235. Duration                                 : 1 h 28 min
  236. Bit rate                                 : 89 b/s
  237. Frame rate                               : 0.249 FPS
  238. Count of elements                        : 1323
  239. Stream size                              : 58.2 KiB (0%)
  240. Language                                 : Hungarian
  241. Default                                  : No
  242. Forced                                   : No
  243. Text #16
  244. ID                                       : 18
  245. Format                                   : UTF-8
  246. Codec ID                                 : S_TEXT/UTF8
  247. Codec ID/Info                            : UTF-8 Plain Text
  248. Duration                                 : 1 h 28 min
  249. Bit rate                                 : 81 b/s
  250. Frame rate                               : 0.251 FPS
  251. Count of elements                        : 1335
  252. Stream size                              : 52.6 KiB (0%)
  253. Language                                 : Indonesian
  254. Default                                  : No
  255. Forced                                   : No
  256. Text #17
  257. ID                                       : 19
  258. Format                                   : UTF-8
  259. Codec ID                                 : S_TEXT/UTF8
  260. Codec ID/Info                            : UTF-8 Plain Text
  261. Duration                                 : 1 h 28 min
  262. Bit rate                                 : 89 b/s
  263. Frame rate                               : 0.248 FPS
  264. Count of elements                        : 1318
  265. Stream size                              : 57.8 KiB (0%)
  266. Language                                 : Italian
  267. Default                                  : No
  268. Forced                                   : No
  269. Text #18
  270. ID                                       : 20
  271. Format                                   : UTF-8
  272. Codec ID                                 : S_TEXT/UTF8
  273. Codec ID/Info                            : UTF-8 Plain Text
  274. Duration                                 : 1 h 28 min
  275. Bit rate                                 : 111 b/s
  276. Frame rate                               : 0.266 FPS
  277. Count of elements                        : 1416
  278. Stream size                              : 72.5 KiB (0%)
  279. Language                                 : Japanese
  280. Default                                  : No
  281. Forced                                   : No
  282. Text #19
  283. ID                                       : 21
  284. Format                                   : UTF-8
  285. Codec ID                                 : S_TEXT/UTF8
  286. Codec ID/Info                            : UTF-8 Plain Text
  287. Duration                                 : 1 h 28 min
  288. Bit rate                                 : 109 b/s
  289. Frame rate                               : 0.267 FPS
  290. Count of elements                        : 1417
  291. Stream size                              : 71.2 KiB (0%)
  292. Language                                 : Korean
  293. Default                                  : No
  294. Forced                                   : No
  295. Text #20
  296. ID                                       : 22
  297. Format                                   : UTF-8
  298. Codec ID                                 : S_TEXT/UTF8
  299. Codec ID/Info                            : UTF-8 Plain Text
  300. Duration                                 : 1 h 28 min
  301. Bit rate                                 : 85 b/s
  302. Frame rate                               : 0.252 FPS
  303. Count of elements                        : 1338
  304. Stream size                              : 55.2 KiB (0%)
  305. Language                                 : Malay
  306. Default                                  : No
  307. Forced                                   : No
  308. Text #21
  309. ID                                       : 23
  310. Format                                   : UTF-8
  311. Codec ID                                 : S_TEXT/UTF8
  312. Codec ID/Info                            : UTF-8 Plain Text
  313. Duration                                 : 1 h 28 min
  314. Bit rate                                 : 76 b/s
  315. Frame rate                               : 0.198 FPS
  316. Count of elements                        : 1053
  317. Stream size                              : 49.7 KiB (0%)
  318. Language                                 : Norwegian Bokmal
  319. Default                                  : No
  320. Forced                                   : No
  321. Text #22
  322. ID                                       : 24
  323. Format                                   : UTF-8
  324. Codec ID                                 : S_TEXT/UTF8
  325. Codec ID/Info                            : UTF-8 Plain Text
  326. Duration                                 : 1 h 28 min
  327. Bit rate                                 : 84 b/s
  328. Frame rate                               : 0.222 FPS
  329. Count of elements                        : 1179
  330. Stream size                              : 54.6 KiB (0%)
  331. Language                                 : Dutch
  332. Default                                  : No
  333. Forced                                   : No
  334. Text #23
  335. ID                                       : 25
  336. Format                                   : UTF-8
  337. Codec ID                                 : S_TEXT/UTF8
  338. Codec ID/Info                            : UTF-8 Plain Text
  339. Duration                                 : 1 h 28 min
  340. Bit rate                                 : 66 b/s
  341. Frame rate                               : 0.245 FPS
  342. Count of elements                        : 1302
  343. Stream size                              : 42.9 KiB (0%)
  344. Language                                 : Polish
  345. Default                                  : No
  346. Forced                                   : No
  347. Text #24
  348. ID                                       : 26
  349. Format                                   : UTF-8
  350. Codec ID                                 : S_TEXT/UTF8
  351. Codec ID/Info                            : UTF-8 Plain Text
  352. Duration                                 : 1 h 28 min
  353. Bit rate                                 : 81 b/s
  354. Frame rate                               : 0.248 FPS
  355. Count of elements                        : 1317
  356. Stream size                              : 53.0 KiB (0%)
  357. Title                                    : Brazilian
  358. Language                                 : Portuguese (BR)
  359. Default                                  : No
  360. Forced                                   : No
  361. Text #25
  362. ID                                       : 27
  363. Format                                   : UTF-8
  364. Codec ID                                 : S_TEXT/UTF8
  365. Codec ID/Info                            : UTF-8 Plain Text
  366. Duration                                 : 1 h 28 min
  367. Bit rate                                 : 87 b/s
  368. Frame rate                               : 0.247 FPS
  369. Count of elements                        : 1313
  370. Stream size                              : 56.9 KiB (0%)
  371. Language                                 : Portuguese (PT)
  372. Default                                  : No
  373. Forced                                   : No
  374. Text #26
  375. ID                                       : 28
  376. Format                                   : UTF-8
  377. Codec ID                                 : S_TEXT/UTF8
  378. Codec ID/Info                            : UTF-8 Plain Text
  379. Duration                                 : 1 h 28 min
  380. Bit rate                                 : 92 b/s
  381. Frame rate                               : 0.242 FPS
  382. Count of elements                        : 1285
  383. Stream size                              : 60.3 KiB (0%)
  384. Language                                 : Romanian
  385. Default                                  : No
  386. Forced                                   : No
  387. Text #27
  388. ID                                       : 29
  389. Format                                   : UTF-8
  390. Codec ID                                 : S_TEXT/UTF8
  391. Codec ID/Info                            : UTF-8 Plain Text
  392. Duration                                 : 1 h 28 min
  393. Bit rate                                 : 145 b/s
  394. Frame rate                               : 0.240 FPS
  395. Count of elements                        : 1276
  396. Stream size                              : 94.3 KiB (0%)
  397. Language                                 : Russian
  398. Default                                  : No
  399. Forced                                   : No
  400. Text #28
  401. ID                                       : 30
  402. Format                                   : UTF-8
  403. Codec ID                                 : S_TEXT/UTF8
  404. Codec ID/Info                            : UTF-8 Plain Text
  405. Duration                                 : 1 h 28 min
  406. Bit rate                                 : 80 b/s
  407. Frame rate                               : 0.225 FPS
  408. Count of elements                        : 1195
  409. Stream size                              : 52.4 KiB (0%)
  410. Language                                 : Swedish
  411. Default                                  : No
  412. Forced                                   : No
  413. Text #29
  414. ID                                       : 31
  415. Format                                   : UTF-8
  416. Codec ID                                 : S_TEXT/UTF8
  417. Codec ID/Info                            : UTF-8 Plain Text
  418. Duration                                 : 1 h 28 min
  419. Bit rate                                 : 225 b/s
  420. Frame rate                               : 0.250 FPS
  421. Count of elements                        : 1329
  422. Stream size                              : 146 KiB (0%)
  423. Language                                 : Thai
  424. Default                                  : No
  425. Forced                                   : No
  426. Text #30
  427. ID                                       : 32
  428. Format                                   : UTF-8
  429. Codec ID                                 : S_TEXT/UTF8
  430. Codec ID/Info                            : UTF-8 Plain Text
  431. Duration                                 : 1 h 28 min
  432. Bit rate                                 : 84 b/s
  433. Frame rate                               : 0.244 FPS
  434. Count of elements                        : 1298
  435. Stream size                              : 54.8 KiB (0%)
  436. Language                                 : Turkish
  437. Default                                  : No
  438. Forced                                   : No
  439. Text #31
  440. ID                                       : 33
  441. Format                                   : UTF-8
  442. Codec ID                                 : S_TEXT/UTF8
  443. Codec ID/Info                            : UTF-8 Plain Text
  444. Duration                                 : 1 h 28 min
  445. Bit rate                                 : 152 b/s
  446. Frame rate                               : 0.239 FPS
  447. Count of elements                        : 1273
  448. Stream size                              : 98.9 KiB (0%)
  449. Language                                 : Ukrainian
  450. Default                                  : No
  451. Forced                                   : No
  452. Text #32
  453. ID                                       : 34
  454. Format                                   : UTF-8
  455. Codec ID                                 : S_TEXT/UTF8
  456. Codec ID/Info                            : UTF-8 Plain Text
  457. Duration                                 : 1 h 28 min
  458. Bit rate                                 : 118 b/s
  459. Frame rate                               : 0.256 FPS
  460. Count of elements                        : 1360
  461. Stream size                              : 76.6 KiB (0%)
  462. Language                                 : Vietnamese
  463. Default                                  : No
  464. Forced                                   : No
  465. Text #33
  466. ID                                       : 35
  467. Format                                   : UTF-8
  468. Codec ID                                 : S_TEXT/UTF8
  469. Codec ID/Info                            : UTF-8 Plain Text
  470. Duration                                 : 1 h 28 min
  471. Bit rate                                 : 82 b/s
  472. Frame rate                               : 0.252 FPS
  473. Count of elements                        : 1341
  474. Stream size                              : 53.8 KiB (0%)
  475. Title                                    : Simplified
  476. Language                                 : Chinese (Simplied)
  477. Default                                  : No
  478. Forced                                   : No
  479. Text #34
  480. ID                                       : 36
  481. Format                                   : UTF-8
  482. Codec ID                                 : S_TEXT/UTF8
  483. Codec ID/Info                            : UTF-8 Plain Text
  484. Duration                                 : 1 h 28 min
  485. Bit rate                                 : 77 b/s
  486. Frame rate                               : 0.255 FPS
  487. Count of elements                        : 1357
  488. Stream size                              : 50.3 KiB (0%)
  489. Title                                    : Traditional
  490. Language                                 : Chinese (Traditional)
  491. Default                                  : No
  492. Forced                                   : No
  493. Menu
  494. 01:27:28.000                             : en:End Credits
复制代码











回复

使用道具 举报

蓝光币
1309
发表于 2023-1-9 09:00:01 | 显示全部楼层
不错,收下了。
回复 支持 反对

使用道具 举报

蓝光币
28
发表于 2023-1-9 23:25:48 | 显示全部楼层

楼主太厉害了!楼主,电影应该很好看我觉得蓝光电影网真是个好地方!
回复 支持 反对

使用道具 举报

蓝光币
123
发表于 2023-1-10 08:49:51 | 显示全部楼层

这个帖子不回对不起自己!我想我是一天也不能离开蓝光电影网。
回复 支持 反对

使用道具 举报

蓝光币
2271
发表于 2023-1-10 11:59:20 | 显示全部楼层

这个帖子不回对不起自己!我想我是一天也不能离开蓝光电影网。
回复 支持 反对

使用道具 举报

蓝光币
231
发表于 2023-1-10 14:30:15 | 显示全部楼层
感谢楼主发贴。
回复 支持 反对

使用道具 举报

蓝光币
38
发表于 2023-1-10 14:49:02 | 显示全部楼层
楼主发贴辛苦了,谢谢
回复 支持 反对

使用道具 举报

懒得打字嘛,点击右侧快捷回复 【右侧内容,后台自定义】
您需要登录后才可以回帖 登录 | 立即加入

本版积分规则

Archiver|小黑屋| 蓝光电影网 |网站地图

Copyright © 2021 Comsenz Inc. Powered by 蓝光电影网

蓝光电影网

本站内容由用户自主分享和转载自互联网,转载目的在于传递更多信息,并不代表本网赞同其观点和对其真实性负责。

如有侵权、违反国家法律政策行为,请联系我们,我们会第一时间及时清除和处理!

举报反馈邮箱:[email protected]

快速回复 返回顶部 返回列表