找回密码

蓝光电影网

查看: 64|回复: 0

[2160p-WEB] 房子[中文字幕].The.House.2022.2160p.NF.WEB-DL.DDP5.1.Atmos.DV.MKV.x265-SMURF 7.29GB

[复制链接]
蓝光币
1078
发表于 2023-1-8 22:27:54 | 显示全部楼层 |阅读模式


◎标  题 屋子
◎译  名 屋子里的故事 / 一屋三故(港) / A Casa
◎片  名 The House
◎年  代 2022
◎产  地 美国 / 英国
◎类  别 剧情 / 笑剧 / 动画 / 悬疑 / 惊悚
◎语  言 英语
◎上映日期 2022-01-14(美国收集)
◎IMDb评分 6.8/10 (12883人评价)
◎IMDb链接 https://www.imdb.com/title/tt11703050/
◎豆瓣评分 7.6/10 (5831人评价)
◎豆瓣链接 https://movie.douban.com/subject/35496211/
◎片  长 30分钟
◎导  演 艾玛·德斯沃夫 Emma De Swaef
       马克·詹姆斯·罗斯 Marc James Roels
       妮奇·林卓丝·冯巴 Niki Lindroth von Bahr
       帕洛玛·巴尔扎 Paloma Baeza
◎编  剧 恩达·沃尔什 Enda Walsh
◎演  员 马修·古迪 Matthew Goode
       海伦娜·伯翰·卡特 Helena Bonham Carter
       米娅·高斯 Mia Goth
       保罗·凯耶 Paul Kaye
       米兰达·理查森 Miranda Richardson
       克劳迪·布莱克利 Claudie Blakley
       苏珊·沃卡曼 Susan Wokoma
       福田知盛 Will Sharpe
       马克·希普 Mark Heap
       斯蒂芬妮·科尔 Stephanie Cole
       贾维斯·考科尔 Jarvis Cocker
       杰森·巴内特 Jason Barnett
       斯文·沃尔特 Sven Wollter
       阿伊莎·安托万 Ayesha Antoine
       艾玛·泰特 Emma Tate
       伊冯·隆巴德 Yvonne Lombard
       戴维·霍尔特 David Holt
       韦恩·福雷斯特 Wayne Forester
       约书亚·麦奎尔 Josh McGuire
       古斯塔沃·桑多拉拉 Gustavo Santaolalla
◎简  介
  电影由三部短片组成。                                    
                                女孩带着妹妹和怙恃一家四口遭到约请搬场来到了一幢都丽堂皇的别墅里,在这里,他们不愁吃喝,甚至不用做饭和扫除卫生。虽然新家和宽阔,但女孩更喜好本来阿谁陈旧的温馨的旧屋子。天天夜里,女孩城市在别墅里看到诡异而气象,这令她的心中布满了恐惧,似乎有什么可骇的工作正在这幢别墅、以及爸爸妈妈的身上发生。                                    
                                小鼠是一位衡宇掮客人,他将全数的履历都花在了装修屋子上面,希望这间别墅可以卖一个好代价。当一切的装璜都完成后,小鼠在屋子里震动的发现了横行的蟑螂甲虫,与此同时,想要买房的客人们已经上门了。                                    
                                珍是一位房东,而她的租客们似乎都没法按时交纳房租,这令她没有充足的钱,来改良这幢已经渐渐老化的屋子。珍很是喜好自己的屋子,她的胡想就是可以将它装璜的漂标致亮的,然后约请更多的租客进来居住,但她并没有发现,这个胡想渐渐酿成了牢笼,将她软禁。
  1. Video
  2. ID                                       : 1
  3. Format                                   : HEVC
  4. Format/Info                              : High Efficiency Video Coding
  5. Format profile                           : Main [email protected]@Main
  6. HDR format                               : Dolby Vision, Version 1.0, dvhe.05.06, BL+RPU
  7. Codec ID                                 : V_MPEGH/ISO/HEVC
  8. Duration                                 : 1 h 37 min
  9. Bit rate                                 : 9 954 kb/s
  10. Width                                    : 3 840 pixels
  11. Height                                   : 2 160 pixels
  12. Display aspect ratio                     : 16:9
  13. Frame rate mode                          : Constant
  14. Frame rate                               : 24.000 FPS
  15. Color space                              : YUV
  16. Chroma subsampling                       : 4:2:0
  17. Bit depth                                : 10 bits
  18. Bits/(Pixel*Frame)                       : 0.050
  19. Stream size                              : 6.77 GiB (93%)
  20. Language                                 : English
  21. Default                                  : Yes
  22. Forced                                   : No
  23. Color range                              : Full
  24. Audio
  25. ID                                       : 2
  26. Format                                   : E-AC-3 JOC
  27. Format/Info                              : Enhanced AC-3 with Joint Object Coding
  28. Commercial name                          : Dolby Digital Plus with Dolby Atmos
  29. Codec ID                                 : A_EAC3
  30. Duration                                 : 1 h 37 min
  31. Bit rate mode                            : Constant
  32. Bit rate                                 : 768 kb/s
  33. Channel(s)                               : 6 channels
  34. Channel layout                           : L R C LFE Ls Rs
  35. Sampling rate                            : 48.0 kHz
  36. Frame rate                               : 31.250 FPS (1536 SPF)
  37. Compression mode                         : Lossy
  38. Stream size                              : 535 MiB (7%)
  39. Language                                 : English
  40. Service kind                             : Complete Main
  41. Default                                  : Yes
  42. Forced                                   : No
  43. Complexity index                         : 16
  44. Number of dynamic objects                : 15
  45. Bed channel count                        : 1 channel
  46. Bed channel configuration                : LFE
  47. Text #1
  48. ID                                       : 3
  49. Format                                   : UTF-8
  50. Codec ID                                 : S_TEXT/UTF8
  51. Codec ID/Info                            : UTF-8 Plain Text
  52. Duration                                 : 1 h 29 min
  53. Bit rate                                 : 41 b/s
  54. Frame rate                               : 0.177 FPS
  55. Count of elements                        : 952
  56. Stream size                              : 27.5 KiB (0%)
  57. Language                                 : English
  58. Default                                  : No
  59. Forced                                   : No
  60. Text #2
  61. ID                                       : 4
  62. Format                                   : UTF-8
  63. Codec ID                                 : S_TEXT/UTF8
  64. Codec ID/Info                            : UTF-8 Plain Text
  65. Duration                                 : 1 h 35 min
  66. Bit rate                                 : 58 b/s
  67. Frame rate                               : 0.257 FPS
  68. Count of elements                        : 1476
  69. Stream size                              : 40.6 KiB (0%)
  70. Title                                    : SDH
  71. Language                                 : English
  72. Default                                  : No
  73. Forced                                   : No
  74. Text #3
  75. ID                                       : 5
  76. Format                                   : UTF-8
  77. Codec ID                                 : S_TEXT/UTF8
  78. Codec ID/Info                            : UTF-8 Plain Text
  79. Duration                                 : 1 h 30 min
  80. Bit rate                                 : 63 b/s
  81. Frame rate                               : 0.166 FPS
  82. Count of elements                        : 899
  83. Stream size                              : 41.8 KiB (0%)
  84. Language                                 : Arabic
  85. Default                                  : No
  86. Forced                                   : No
  87. Text #4
  88. ID                                       : 6
  89. Format                                   : UTF-8
  90. Codec ID                                 : S_TEXT/UTF8
  91. Codec ID/Info                            : UTF-8 Plain Text
  92. Duration                                 : 1 h 35 min
  93. Bit rate                                 : 35 b/s
  94. Frame rate                               : 0.155 FPS
  95. Count of elements                        : 890
  96. Stream size                              : 25.1 KiB (0%)
  97. Language                                 : Czech
  98. Default                                  : No
  99. Forced                                   : No
  100. Text #5
  101. ID                                       : 7
  102. Format                                   : UTF-8
  103. Codec ID                                 : S_TEXT/UTF8
  104. Codec ID/Info                            : UTF-8 Plain Text
  105. Duration                                 : 1 h 35 min
  106. Bit rate                                 : 35 b/s
  107. Frame rate                               : 0.159 FPS
  108. Count of elements                        : 911
  109. Stream size                              : 25.1 KiB (0%)
  110. Language                                 : Danish
  111. Default                                  : No
  112. Forced                                   : No
  113. Text #6
  114. ID                                       : 8
  115. Format                                   : UTF-8
  116. Codec ID                                 : S_TEXT/UTF8
  117. Codec ID/Info                            : UTF-8 Plain Text
  118. Duration                                 : 1 h 35 min
  119. Bit rate                                 : 37 b/s
  120. Frame rate                               : 0.155 FPS
  121. Count of elements                        : 892
  122. Stream size                              : 26.1 KiB (0%)
  123. Language                                 : German
  124. Default                                  : No
  125. Forced                                   : No
  126. Text #7
  127. ID                                       : 9
  128. Format                                   : UTF-8
  129. Codec ID                                 : S_TEXT/UTF8
  130. Codec ID/Info                            : UTF-8 Plain Text
  131. Duration                                 : 1 h 35 min
  132. Bit rate                                 : 61 b/s
  133. Frame rate                               : 0.159 FPS
  134. Count of elements                        : 912
  135. Stream size                              : 43.3 KiB (0%)
  136. Language                                 : Greek
  137. Default                                  : No
  138. Forced                                   : No
  139. Text #8
  140. ID                                       : 10
  141. Format                                   : UTF-8
  142. Codec ID                                 : S_TEXT/UTF8
  143. Codec ID/Info                            : UTF-8 Plain Text
  144. Duration                                 : 1 h 35 min
  145. Bit rate                                 : 37 b/s
  146. Frame rate                               : 0.158 FPS
  147. Count of elements                        : 909
  148. Stream size                              : 26.4 KiB (0%)
  149. Title                                    : Latin American
  150. Language                                 : Spanish (Latin America)
  151. Default                                  : No
  152. Forced                                   : No
  153. Text #9
  154. ID                                       : 11
  155. Format                                   : UTF-8
  156. Codec ID                                 : S_TEXT/UTF8
  157. Codec ID/Info                            : UTF-8 Plain Text
  158. Duration                                 : 1 h 35 min
  159. Bit rate                                 : 35 b/s
  160. Frame rate                               : 0.158 FPS
  161. Count of elements                        : 906
  162. Stream size                              : 24.7 KiB (0%)
  163. Language                                 : Spanish (ES)
  164. Default                                  : No
  165. Forced                                   : No
  166. Text #10
  167. ID                                       : 12
  168. Format                                   : UTF-8
  169. Codec ID                                 : S_TEXT/UTF8
  170. Codec ID/Info                            : UTF-8 Plain Text
  171. Duration                                 : 1 h 35 min
  172. Bit rate                                 : 32 b/s
  173. Frame rate                               : 0.144 FPS
  174. Count of elements                        : 826
  175. Stream size                              : 23.1 KiB (0%)
  176. Language                                 : Finnish
  177. Default                                  : No
  178. Forced                                   : No
  179. Text #11
  180. ID                                       : 13
  181. Format                                   : UTF-8
  182. Codec ID                                 : S_TEXT/UTF8
  183. Codec ID/Info                            : UTF-8 Plain Text
  184. Duration                                 : 1 h 35 min
  185. Bit rate                                 : 37 b/s
  186. Frame rate                               : 0.148 FPS
  187. Count of elements                        : 853
  188. Stream size                              : 26.0 KiB (0%)
  189. Language                                 : French
  190. Default                                  : No
  191. Forced                                   : No
  192. Text #12
  193. ID                                       : 14
  194. Format                                   : UTF-8
  195. Codec ID                                 : S_TEXT/UTF8
  196. Codec ID/Info                            : UTF-8 Plain Text
  197. Duration                                 : 1 h 30 min
  198. Bit rate                                 : 61 b/s
  199. Frame rate                               : 0.164 FPS
  200. Count of elements                        : 891
  201. Stream size                              : 40.5 KiB (0%)
  202. Language                                 : Hebrew
  203. Default                                  : No
  204. Forced                                   : No
  205. Text #13
  206. ID                                       : 15
  207. Format                                   : UTF-8
  208. Codec ID                                 : S_TEXT/UTF8
  209. Codec ID/Info                            : UTF-8 Plain Text
  210. Duration                                 : 1 h 35 min
  211. Bit rate                                 : 32 b/s
  212. Frame rate                               : 0.156 FPS
  213. Count of elements                        : 899
  214. Stream size                              : 22.9 KiB (0%)
  215. Language                                 : Croatian
  216. Default                                  : No
  217. Forced                                   : No
  218. Text #14
  219. ID                                       : 16
  220. Format                                   : UTF-8
  221. Codec ID                                 : S_TEXT/UTF8
  222. Codec ID/Info                            : UTF-8 Plain Text
  223. Duration                                 : 1 h 35 min
  224. Bit rate                                 : 39 b/s
  225. Frame rate                               : 0.157 FPS
  226. Count of elements                        : 902
  227. Stream size                              : 27.4 KiB (0%)
  228. Language                                 : Hungarian
  229. Default                                  : No
  230. Forced                                   : No
  231. Text #15
  232. ID                                       : 17
  233. Format                                   : UTF-8
  234. Codec ID                                 : S_TEXT/UTF8
  235. Codec ID/Info                            : UTF-8 Plain Text
  236. Duration                                 : 1 h 35 min
  237. Bit rate                                 : 36 b/s
  238. Frame rate                               : 0.158 FPS
  239. Count of elements                        : 909
  240. Stream size                              : 25.3 KiB (0%)
  241. Language                                 : Indonesian
  242. Default                                  : No
  243. Forced                                   : No
  244. Text #16
  245. ID                                       : 18
  246. Format                                   : UTF-8
  247. Codec ID                                 : S_TEXT/UTF8
  248. Codec ID/Info                            : UTF-8 Plain Text
  249. Duration                                 : 1 h 35 min
  250. Bit rate                                 : 36 b/s
  251. Frame rate                               : 0.154 FPS
  252. Count of elements                        : 883
  253. Stream size                              : 25.9 KiB (0%)
  254. Language                                 : Italian
  255. Default                                  : No
  256. Forced                                   : No
  257. Text #17
  258. ID                                       : 19
  259. Format                                   : UTF-8
  260. Codec ID                                 : S_TEXT/UTF8
  261. Codec ID/Info                            : UTF-8 Plain Text
  262. Duration                                 : 1 h 35 min
  263. Bit rate                                 : 37 b/s
  264. Frame rate                               : 0.159 FPS
  265. Count of elements                        : 912
  266. Stream size                              : 26.3 KiB (0%)
  267. Language                                 : Japanese
  268. Default                                  : No
  269. Forced                                   : No
  270. Text #18
  271. ID                                       : 20
  272. Format                                   : UTF-8
  273. Codec ID                                 : S_TEXT/UTF8
  274. Codec ID/Info                            : UTF-8 Plain Text
  275. Duration                                 : 1 h 35 min
  276. Bit rate                                 : 48 b/s
  277. Frame rate                               : 0.158 FPS
  278. Count of elements                        : 910
  279. Stream size                              : 33.9 KiB (0%)
  280. Language                                 : Korean
  281. Default                                  : No
  282. Forced                                   : No
  283. Text #19
  284. ID                                       : 21
  285. Format                                   : UTF-8
  286. Codec ID                                 : S_TEXT/UTF8
  287. Codec ID/Info                            : UTF-8 Plain Text
  288. Duration                                 : 1 h 35 min
  289. Bit rate                                 : 33 b/s
  290. Frame rate                               : 0.159 FPS
  291. Count of elements                        : 913
  292. Stream size                              : 23.3 KiB (0%)
  293. Language                                 : Malay
  294. Default                                  : No
  295. Forced                                   : No
  296. Text #20
  297. ID                                       : 22
  298. Format                                   : UTF-8
  299. Codec ID                                 : S_TEXT/UTF8
  300. Codec ID/Info                            : UTF-8 Plain Text
  301. Duration                                 : 1 h 35 min
  302. Bit rate                                 : 34 b/s
  303. Frame rate                               : 0.154 FPS
  304. Count of elements                        : 883
  305. Stream size                              : 24.3 KiB (0%)
  306. Language                                 : Norwegian Bokmal
  307. Default                                  : No
  308. Forced                                   : No
  309. Text #21
  310. ID                                       : 23
  311. Format                                   : UTF-8
  312. Codec ID                                 : S_TEXT/UTF8
  313. Codec ID/Info                            : UTF-8 Plain Text
  314. Duration                                 : 1 h 31 min
  315. Bit rate                                 : 36 b/s
  316. Frame rate                               : 0.132 FPS
  317. Count of elements                        : 723
  318. Stream size                              : 24.2 KiB (0%)
  319. Language                                 : Dutch
  320. Default                                  : No
  321. Forced                                   : No
  322. Text #22
  323. ID                                       : 24
  324. Format                                   : UTF-8
  325. Codec ID                                 : S_TEXT/UTF8
  326. Codec ID/Info                            : UTF-8 Plain Text
  327. Duration                                 : 1 h 35 min
  328. Bit rate                                 : 30 b/s
  329. Frame rate                               : 0.150 FPS
  330. Count of elements                        : 859
  331. Stream size                              : 21.1 KiB (0%)
  332. Language                                 : Polish
  333. Default                                  : No
  334. Forced                                   : No
  335. Text #23
  336. ID                                       : 25
  337. Format                                   : UTF-8
  338. Codec ID                                 : S_TEXT/UTF8
  339. Codec ID/Info                            : UTF-8 Plain Text
  340. Duration                                 : 1 h 35 min
  341. Bit rate                                 : 35 b/s
  342. Frame rate                               : 0.157 FPS
  343. Count of elements                        : 900
  344. Stream size                              : 25.2 KiB (0%)
  345. Title                                    : Brazilian
  346. Language                                 : Portuguese (BR)
  347. Default                                  : No
  348. Forced                                   : No
  349. Text #24
  350. ID                                       : 26
  351. Format                                   : UTF-8
  352. Codec ID                                 : S_TEXT/UTF8
  353. Codec ID/Info                            : UTF-8 Plain Text
  354. Duration                                 : 1 h 35 min
  355. Bit rate                                 : 35 b/s
  356. Frame rate                               : 0.157 FPS
  357. Count of elements                        : 902
  358. Stream size                              : 24.9 KiB (0%)
  359. Language                                 : Portuguese (PT)
  360. Default                                  : No
  361. Forced                                   : No
  362. Text #25
  363. ID                                       : 27
  364. Format                                   : UTF-8
  365. Codec ID                                 : S_TEXT/UTF8
  366. Codec ID/Info                            : UTF-8 Plain Text
  367. Duration                                 : 1 h 35 min
  368. Bit rate                                 : 41 b/s
  369. Frame rate                               : 0.157 FPS
  370. Count of elements                        : 904
  371. Stream size                              : 28.9 KiB (0%)
  372. Language                                 : Romanian
  373. Default                                  : No
  374. Forced                                   : No
  375. Text #26
  376. ID                                       : 28
  377. Format                                   : UTF-8
  378. Codec ID                                 : S_TEXT/UTF8
  379. Codec ID/Info                            : UTF-8 Plain Text
  380. Duration                                 : 1 h 35 min
  381. Bit rate                                 : 58 b/s
  382. Frame rate                               : 0.160 FPS
  383. Count of elements                        : 917
  384. Stream size                              : 41.3 KiB (0%)
  385. Language                                 : Russian
  386. Default                                  : No
  387. Forced                                   : No
  388. Text #27
  389. ID                                       : 29
  390. Format                                   : UTF-8
  391. Codec ID                                 : S_TEXT/UTF8
  392. Codec ID/Info                            : UTF-8 Plain Text
  393. Duration                                 : 1 h 35 min
  394. Bit rate                                 : 35 b/s
  395. Frame rate                               : 0.151 FPS
  396. Count of elements                        : 869
  397. Stream size                              : 24.7 KiB (0%)
  398. Language                                 : Swedish
  399. Default                                  : No
  400. Forced                                   : No
  401. Text #28
  402. ID                                       : 30
  403. Format                                   : UTF-8
  404. Codec ID                                 : S_TEXT/UTF8
  405. Codec ID/Info                            : UTF-8 Plain Text
  406. Duration                                 : 1 h 35 min
  407. Bit rate                                 : 91 b/s
  408. Frame rate                               : 0.159 FPS
  409. Count of elements                        : 915
  410. Stream size                              : 64.0 KiB (0%)
  411. Language                                 : Thai
  412. Default                                  : No
  413. Forced                                   : No
  414. Text #29
  415. ID                                       : 31
  416. Format                                   : UTF-8
  417. Codec ID                                 : S_TEXT/UTF8
  418. Codec ID/Info                            : UTF-8 Plain Text
  419. Duration                                 : 1 h 35 min
  420. Bit rate                                 : 39 b/s
  421. Frame rate                               : 0.164 FPS
  422. Count of elements                        : 942
  423. Stream size                              : 27.4 KiB (0%)
  424. Language                                 : Turkish
  425. Default                                  : No
  426. Forced                                   : No
  427. Text #30
  428. ID                                       : 32
  429. Format                                   : UTF-8
  430. Codec ID                                 : S_TEXT/UTF8
  431. Codec ID/Info                            : UTF-8 Plain Text
  432. Duration                                 : 1 h 35 min
  433. Bit rate                                 : 61 b/s
  434. Frame rate                               : 0.158 FPS
  435. Count of elements                        : 906
  436. Stream size                              : 42.9 KiB (0%)
  437. Language                                 : Ukrainian
  438. Default                                  : No
  439. Forced                                   : No
  440. Text #31
  441. ID                                       : 33
  442. Format                                   : UTF-8
  443. Codec ID                                 : S_TEXT/UTF8
  444. Codec ID/Info                            : UTF-8 Plain Text
  445. Duration                                 : 1 h 35 min
  446. Bit rate                                 : 57 b/s
  447. Frame rate                               : 0.155 FPS
  448. Count of elements                        : 888
  449. Stream size                              : 40.3 KiB (0%)
  450. Language                                 : Vietnamese
  451. Default                                  : No
  452. Forced                                   : No
  453. Text #32
  454. ID                                       : 34
  455. Format                                   : UTF-8
  456. Codec ID                                 : S_TEXT/UTF8
  457. Codec ID/Info                            : UTF-8 Plain Text
  458. Duration                                 : 1 h 35 min
  459. Bit rate                                 : 39 b/s
  460. Frame rate                               : 0.158 FPS
  461. Count of elements                        : 906
  462. Stream size                              : 27.4 KiB (0%)
  463. Title                                    : Simplified
  464. Language                                 : Chinese (Simplied)
  465. Default                                  : No
  466. Forced                                   : No
  467. Text #33
  468. ID                                       : 35
  469. Format                                   : UTF-8
  470. Codec ID                                 : S_TEXT/UTF8
  471. Codec ID/Info                            : UTF-8 Plain Text
  472. Duration                                 : 1 h 35 min
  473. Bit rate                                 : 36 b/s
  474. Frame rate                               : 0.159 FPS
  475. Count of elements                        : 913
  476. Stream size                              : 25.4 KiB (0%)
  477. Title                                    : Traditional
  478. Language                                 : Chinese (Traditional)
  479. Default                                  : No
  480. Forced                                   : No
  481. Menu
  482. 01:31:36.000                             : en:End Credits
复制代码











回复

使用道具 举报

懒得打字嘛,点击右侧快捷回复 【右侧内容,后台自定义】
您需要登录后才可以回帖 登录 | 立即加入

本版积分规则

Archiver|小黑屋| 蓝光电影网 |网站地图

Copyright © 2021 Comsenz Inc. Powered by 蓝光电影网

蓝光电影网

本站内容由用户自主分享和转载自互联网,转载目的在于传递更多信息,并不代表本网赞同其观点和对其真实性负责。

如有侵权、违反国家法律政策行为,请联系我们,我们会第一时间及时清除和处理!

举报反馈邮箱:[email protected]

快速回复 返回顶部 返回列表