找回密码

蓝光电影网

查看: 406|回复: 15

[2160p-WEB] 房子[中文字幕].The.House.2022.2160p.NF.WEB-DL.x265.10bit.SDR.DDP5.1.Atmos-SMURF 8.17GB

[复制链接]
蓝光币
1082
发表于 2023-1-8 22:27:56 | 显示全部楼层 |阅读模式


◎标  题 屋子
◎译  名 屋子里的故事 / 一屋三故(港) / A Casa
◎片  名 The House
◎年  代 2022
◎产  地 美国 / 英国
◎类  别 剧情 / 笑剧 / 动画 / 悬疑 / 惊悚
◎语  言 英语
◎上映日期 2022-01-14(美国收集)
◎IMDb评分 6.8/10 (12883人评价)
◎IMDb链接 https://www.imdb.com/title/tt11703050/
◎豆瓣评分 7.6/10 (5831人评价)
◎豆瓣链接 https://movie.douban.com/subject/35496211/
◎片  长 30分钟
◎导  演 艾玛·德斯沃夫 Emma De Swaef
       马克·詹姆斯·罗斯 Marc James Roels
       妮奇·林卓丝·冯巴 Niki Lindroth von Bahr
       帕洛玛·巴尔扎 Paloma Baeza
◎编  剧 恩达·沃尔什 Enda Walsh
◎演  员 马修·古迪 Matthew Goode
       海伦娜·伯翰·卡特 Helena Bonham Carter
       米娅·高斯 Mia Goth
       保罗·凯耶 Paul Kaye
       米兰达·理查森 Miranda Richardson
       克劳迪·布莱克利 Claudie Blakley
       苏珊·沃卡曼 Susan Wokoma
       福田知盛 Will Sharpe
       马克·希普 Mark Heap
       斯蒂芬妮·科尔 Stephanie Cole
       贾维斯·考科尔 Jarvis Cocker
       杰森·巴内特 Jason Barnett
       斯文·沃尔特 Sven Wollter
       阿伊莎·安托万 Ayesha Antoine
       艾玛·泰特 Emma Tate
       伊冯·隆巴德 Yvonne Lombard
       戴维·霍尔特 David Holt
       韦恩·福雷斯特 Wayne Forester
       约书亚·麦奎尔 Josh McGuire
       古斯塔沃·桑多拉拉 Gustavo Santaolalla
◎简  介
  电影由三部短片组成。                                    
                                女孩带着妹妹和怙恃一家四口遭到约请搬场来到了一幢都丽堂皇的别墅里,在这里,他们不愁吃喝,甚至不用做饭和扫除卫生。虽然新家和宽阔,但女孩更喜好本来阿谁陈旧的温馨的旧屋子。天天夜里,女孩城市在别墅里看到诡异而气象,这令她的心中布满了恐惧,似乎有什么可骇的工作正在这幢别墅、以及爸爸妈妈的身上发生。                                    
                                小鼠是一位衡宇掮客人,他将全数的履历都花在了装修屋子上面,希望这间别墅可以卖一个好代价。当一切的装璜都完成后,小鼠在屋子里震动的发现了横行的蟑螂甲虫,与此同时,想要买房的客人们已经上门了。                                    
                                珍是一位房东,而她的租客们似乎都没法按时交纳房租,这令她没有充足的钱,来改良这幢已经渐渐老化的屋子。珍很是喜好自己的屋子,她的胡想就是可以将它装璜的漂标致亮的,然后约请更多的租客进来居住,但她并没有发现,这个胡想渐渐酿成了牢笼,将她软禁。
  1. Video
  2. ID                                       : 1
  3. Format                                   : HEVC
  4. Format/Info                              : High Efficiency Video Coding
  5. Format profile                           : Main [email protected]@Main
  6. Codec ID                                 : V_MPEGH/ISO/HEVC
  7. Duration                                 : 1 h 37 min
  8. Bit rate                                 : 11.2 Mb/s
  9. Width                                    : 3 840 pixels
  10. Height                                   : 2 160 pixels
  11. Display aspect ratio                     : 16:9
  12. Frame rate mode                          : Constant
  13. Frame rate                               : 24.000 FPS
  14. Color space                              : YUV
  15. Chroma subsampling                       : 4:2:0
  16. Bit depth                                : 10 bits
  17. Bits/(Pixel*Frame)                       : 0.056
  18. Stream size                              : 7.65 GiB (94%)
  19. Language                                 : English
  20. Default                                  : Yes
  21. Forced                                   : No
  22. Color range                              : Limited
  23. Color primaries                          : BT.709
  24. Transfer characteristics                 : BT.709
  25. Matrix coefficients                      : BT.709
  26. Audio
  27. ID                                       : 2
  28. Format                                   : E-AC-3 JOC
  29. Format/Info                              : Enhanced AC-3 with Joint Object Coding
  30. Commercial name                          : Dolby Digital Plus with Dolby Atmos
  31. Codec ID                                 : A_EAC3
  32. Duration                                 : 1 h 37 min
  33. Bit rate mode                            : Constant
  34. Bit rate                                 : 768 kb/s
  35. Channel(s)                               : 6 channels
  36. Channel layout                           : L R C LFE Ls Rs
  37. Sampling rate                            : 48.0 kHz
  38. Frame rate                               : 31.250 FPS (1536 SPF)
  39. Compression mode                         : Lossy
  40. Stream size                              : 535 MiB (6%)
  41. Language                                 : English
  42. Service kind                             : Complete Main
  43. Default                                  : Yes
  44. Forced                                   : No
  45. Complexity index                         : 16
  46. Number of dynamic objects                : 15
  47. Bed channel count                        : 1 channel
  48. Bed channel configuration                : LFE
  49. Text #1
  50. ID                                       : 3
  51. Format                                   : UTF-8
  52. Codec ID                                 : S_TEXT/UTF8
  53. Codec ID/Info                            : UTF-8 Plain Text
  54. Duration                                 : 1 h 29 min
  55. Bit rate                                 : 41 b/s
  56. Frame rate                               : 0.177 FPS
  57. Count of elements                        : 952
  58. Stream size                              : 27.5 KiB (0%)
  59. Language                                 : English
  60. Default                                  : No
  61. Forced                                   : No
  62. Text #2
  63. ID                                       : 4
  64. Format                                   : UTF-8
  65. Codec ID                                 : S_TEXT/UTF8
  66. Codec ID/Info                            : UTF-8 Plain Text
  67. Duration                                 : 1 h 35 min
  68. Bit rate                                 : 58 b/s
  69. Frame rate                               : 0.257 FPS
  70. Count of elements                        : 1476
  71. Stream size                              : 40.6 KiB (0%)
  72. Title                                    : SDH
  73. Language                                 : English
  74. Default                                  : No
  75. Forced                                   : No
  76. Text #3
  77. ID                                       : 5
  78. Format                                   : UTF-8
  79. Codec ID                                 : S_TEXT/UTF8
  80. Codec ID/Info                            : UTF-8 Plain Text
  81. Duration                                 : 1 h 30 min
  82. Bit rate                                 : 63 b/s
  83. Frame rate                               : 0.166 FPS
  84. Count of elements                        : 899
  85. Stream size                              : 41.8 KiB (0%)
  86. Language                                 : Arabic
  87. Default                                  : No
  88. Forced                                   : No
  89. Text #4
  90. ID                                       : 6
  91. Format                                   : UTF-8
  92. Codec ID                                 : S_TEXT/UTF8
  93. Codec ID/Info                            : UTF-8 Plain Text
  94. Duration                                 : 1 h 35 min
  95. Bit rate                                 : 35 b/s
  96. Frame rate                               : 0.155 FPS
  97. Count of elements                        : 890
  98. Stream size                              : 25.1 KiB (0%)
  99. Language                                 : Czech
  100. Default                                  : No
  101. Forced                                   : No
  102. Text #5
  103. ID                                       : 7
  104. Format                                   : UTF-8
  105. Codec ID                                 : S_TEXT/UTF8
  106. Codec ID/Info                            : UTF-8 Plain Text
  107. Duration                                 : 1 h 35 min
  108. Bit rate                                 : 35 b/s
  109. Frame rate                               : 0.159 FPS
  110. Count of elements                        : 911
  111. Stream size                              : 25.1 KiB (0%)
  112. Language                                 : Danish
  113. Default                                  : No
  114. Forced                                   : No
  115. Text #6
  116. ID                                       : 8
  117. Format                                   : UTF-8
  118. Codec ID                                 : S_TEXT/UTF8
  119. Codec ID/Info                            : UTF-8 Plain Text
  120. Duration                                 : 1 h 35 min
  121. Bit rate                                 : 37 b/s
  122. Frame rate                               : 0.155 FPS
  123. Count of elements                        : 892
  124. Stream size                              : 26.1 KiB (0%)
  125. Language                                 : German
  126. Default                                  : No
  127. Forced                                   : No
  128. Text #7
  129. ID                                       : 9
  130. Format                                   : UTF-8
  131. Codec ID                                 : S_TEXT/UTF8
  132. Codec ID/Info                            : UTF-8 Plain Text
  133. Duration                                 : 1 h 35 min
  134. Bit rate                                 : 61 b/s
  135. Frame rate                               : 0.159 FPS
  136. Count of elements                        : 912
  137. Stream size                              : 43.3 KiB (0%)
  138. Language                                 : Greek
  139. Default                                  : No
  140. Forced                                   : No
  141. Text #8
  142. ID                                       : 10
  143. Format                                   : UTF-8
  144. Codec ID                                 : S_TEXT/UTF8
  145. Codec ID/Info                            : UTF-8 Plain Text
  146. Duration                                 : 1 h 35 min
  147. Bit rate                                 : 37 b/s
  148. Frame rate                               : 0.158 FPS
  149. Count of elements                        : 909
  150. Stream size                              : 26.4 KiB (0%)
  151. Title                                    : Latin American
  152. Language                                 : Spanish (Latin America)
  153. Default                                  : No
  154. Forced                                   : No
  155. Text #9
  156. ID                                       : 11
  157. Format                                   : UTF-8
  158. Codec ID                                 : S_TEXT/UTF8
  159. Codec ID/Info                            : UTF-8 Plain Text
  160. Duration                                 : 1 h 35 min
  161. Bit rate                                 : 35 b/s
  162. Frame rate                               : 0.158 FPS
  163. Count of elements                        : 906
  164. Stream size                              : 24.7 KiB (0%)
  165. Language                                 : Spanish (ES)
  166. Default                                  : No
  167. Forced                                   : No
  168. Text #10
  169. ID                                       : 12
  170. Format                                   : UTF-8
  171. Codec ID                                 : S_TEXT/UTF8
  172. Codec ID/Info                            : UTF-8 Plain Text
  173. Duration                                 : 1 h 35 min
  174. Bit rate                                 : 32 b/s
  175. Frame rate                               : 0.144 FPS
  176. Count of elements                        : 826
  177. Stream size                              : 23.1 KiB (0%)
  178. Language                                 : Finnish
  179. Default                                  : No
  180. Forced                                   : No
  181. Text #11
  182. ID                                       : 13
  183. Format                                   : UTF-8
  184. Codec ID                                 : S_TEXT/UTF8
  185. Codec ID/Info                            : UTF-8 Plain Text
  186. Duration                                 : 1 h 35 min
  187. Bit rate                                 : 37 b/s
  188. Frame rate                               : 0.148 FPS
  189. Count of elements                        : 853
  190. Stream size                              : 26.0 KiB (0%)
  191. Language                                 : French
  192. Default                                  : No
  193. Forced                                   : No
  194. Text #12
  195. ID                                       : 14
  196. Format                                   : UTF-8
  197. Codec ID                                 : S_TEXT/UTF8
  198. Codec ID/Info                            : UTF-8 Plain Text
  199. Duration                                 : 1 h 30 min
  200. Bit rate                                 : 61 b/s
  201. Frame rate                               : 0.164 FPS
  202. Count of elements                        : 891
  203. Stream size                              : 40.5 KiB (0%)
  204. Language                                 : Hebrew
  205. Default                                  : No
  206. Forced                                   : No
  207. Text #13
  208. ID                                       : 15
  209. Format                                   : UTF-8
  210. Codec ID                                 : S_TEXT/UTF8
  211. Codec ID/Info                            : UTF-8 Plain Text
  212. Duration                                 : 1 h 35 min
  213. Bit rate                                 : 32 b/s
  214. Frame rate                               : 0.156 FPS
  215. Count of elements                        : 899
  216. Stream size                              : 22.9 KiB (0%)
  217. Language                                 : Croatian
  218. Default                                  : No
  219. Forced                                   : No
  220. Text #14
  221. ID                                       : 16
  222. Format                                   : UTF-8
  223. Codec ID                                 : S_TEXT/UTF8
  224. Codec ID/Info                            : UTF-8 Plain Text
  225. Duration                                 : 1 h 35 min
  226. Bit rate                                 : 39 b/s
  227. Frame rate                               : 0.157 FPS
  228. Count of elements                        : 902
  229. Stream size                              : 27.4 KiB (0%)
  230. Language                                 : Hungarian
  231. Default                                  : No
  232. Forced                                   : No
  233. Text #15
  234. ID                                       : 17
  235. Format                                   : UTF-8
  236. Codec ID                                 : S_TEXT/UTF8
  237. Codec ID/Info                            : UTF-8 Plain Text
  238. Duration                                 : 1 h 35 min
  239. Bit rate                                 : 36 b/s
  240. Frame rate                               : 0.158 FPS
  241. Count of elements                        : 909
  242. Stream size                              : 25.3 KiB (0%)
  243. Language                                 : Indonesian
  244. Default                                  : No
  245. Forced                                   : No
  246. Text #16
  247. ID                                       : 18
  248. Format                                   : UTF-8
  249. Codec ID                                 : S_TEXT/UTF8
  250. Codec ID/Info                            : UTF-8 Plain Text
  251. Duration                                 : 1 h 35 min
  252. Bit rate                                 : 36 b/s
  253. Frame rate                               : 0.154 FPS
  254. Count of elements                        : 883
  255. Stream size                              : 25.9 KiB (0%)
  256. Language                                 : Italian
  257. Default                                  : No
  258. Forced                                   : No
  259. Text #17
  260. ID                                       : 19
  261. Format                                   : UTF-8
  262. Codec ID                                 : S_TEXT/UTF8
  263. Codec ID/Info                            : UTF-8 Plain Text
  264. Duration                                 : 1 h 35 min
  265. Bit rate                                 : 37 b/s
  266. Frame rate                               : 0.159 FPS
  267. Count of elements                        : 912
  268. Stream size                              : 26.3 KiB (0%)
  269. Language                                 : Japanese
  270. Default                                  : No
  271. Forced                                   : No
  272. Text #18
  273. ID                                       : 20
  274. Format                                   : UTF-8
  275. Codec ID                                 : S_TEXT/UTF8
  276. Codec ID/Info                            : UTF-8 Plain Text
  277. Duration                                 : 1 h 35 min
  278. Bit rate                                 : 48 b/s
  279. Frame rate                               : 0.158 FPS
  280. Count of elements                        : 910
  281. Stream size                              : 33.9 KiB (0%)
  282. Language                                 : Korean
  283. Default                                  : No
  284. Forced                                   : No
  285. Text #19
  286. ID                                       : 21
  287. Format                                   : UTF-8
  288. Codec ID                                 : S_TEXT/UTF8
  289. Codec ID/Info                            : UTF-8 Plain Text
  290. Duration                                 : 1 h 35 min
  291. Bit rate                                 : 33 b/s
  292. Frame rate                               : 0.159 FPS
  293. Count of elements                        : 913
  294. Stream size                              : 23.3 KiB (0%)
  295. Language                                 : Malay
  296. Default                                  : No
  297. Forced                                   : No
  298. Text #20
  299. ID                                       : 22
  300. Format                                   : UTF-8
  301. Codec ID                                 : S_TEXT/UTF8
  302. Codec ID/Info                            : UTF-8 Plain Text
  303. Duration                                 : 1 h 35 min
  304. Bit rate                                 : 34 b/s
  305. Frame rate                               : 0.154 FPS
  306. Count of elements                        : 883
  307. Stream size                              : 24.3 KiB (0%)
  308. Language                                 : Norwegian Bokmal
  309. Default                                  : No
  310. Forced                                   : No
  311. Text #21
  312. ID                                       : 23
  313. Format                                   : UTF-8
  314. Codec ID                                 : S_TEXT/UTF8
  315. Codec ID/Info                            : UTF-8 Plain Text
  316. Duration                                 : 1 h 31 min
  317. Bit rate                                 : 36 b/s
  318. Frame rate                               : 0.132 FPS
  319. Count of elements                        : 723
  320. Stream size                              : 24.2 KiB (0%)
  321. Language                                 : Dutch
  322. Default                                  : No
  323. Forced                                   : No
  324. Text #22
  325. ID                                       : 24
  326. Format                                   : UTF-8
  327. Codec ID                                 : S_TEXT/UTF8
  328. Codec ID/Info                            : UTF-8 Plain Text
  329. Duration                                 : 1 h 35 min
  330. Bit rate                                 : 30 b/s
  331. Frame rate                               : 0.150 FPS
  332. Count of elements                        : 859
  333. Stream size                              : 21.1 KiB (0%)
  334. Language                                 : Polish
  335. Default                                  : No
  336. Forced                                   : No
  337. Text #23
  338. ID                                       : 25
  339. Format                                   : UTF-8
  340. Codec ID                                 : S_TEXT/UTF8
  341. Codec ID/Info                            : UTF-8 Plain Text
  342. Duration                                 : 1 h 35 min
  343. Bit rate                                 : 35 b/s
  344. Frame rate                               : 0.157 FPS
  345. Count of elements                        : 900
  346. Stream size                              : 25.2 KiB (0%)
  347. Title                                    : Brazilian
  348. Language                                 : Portuguese (BR)
  349. Default                                  : No
  350. Forced                                   : No
  351. Text #24
  352. ID                                       : 26
  353. Format                                   : UTF-8
  354. Codec ID                                 : S_TEXT/UTF8
  355. Codec ID/Info                            : UTF-8 Plain Text
  356. Duration                                 : 1 h 35 min
  357. Bit rate                                 : 35 b/s
  358. Frame rate                               : 0.157 FPS
  359. Count of elements                        : 902
  360. Stream size                              : 24.9 KiB (0%)
  361. Language                                 : Portuguese (PT)
  362. Default                                  : No
  363. Forced                                   : No
  364. Text #25
  365. ID                                       : 27
  366. Format                                   : UTF-8
  367. Codec ID                                 : S_TEXT/UTF8
  368. Codec ID/Info                            : UTF-8 Plain Text
  369. Duration                                 : 1 h 35 min
  370. Bit rate                                 : 41 b/s
  371. Frame rate                               : 0.157 FPS
  372. Count of elements                        : 904
  373. Stream size                              : 28.9 KiB (0%)
  374. Language                                 : Romanian
  375. Default                                  : No
  376. Forced                                   : No
  377. Text #26
  378. ID                                       : 28
  379. Format                                   : UTF-8
  380. Codec ID                                 : S_TEXT/UTF8
  381. Codec ID/Info                            : UTF-8 Plain Text
  382. Duration                                 : 1 h 35 min
  383. Bit rate                                 : 58 b/s
  384. Frame rate                               : 0.160 FPS
  385. Count of elements                        : 917
  386. Stream size                              : 41.3 KiB (0%)
  387. Language                                 : Russian
  388. Default                                  : No
  389. Forced                                   : No
  390. Text #27
  391. ID                                       : 29
  392. Format                                   : UTF-8
  393. Codec ID                                 : S_TEXT/UTF8
  394. Codec ID/Info                            : UTF-8 Plain Text
  395. Duration                                 : 1 h 35 min
  396. Bit rate                                 : 35 b/s
  397. Frame rate                               : 0.151 FPS
  398. Count of elements                        : 869
  399. Stream size                              : 24.7 KiB (0%)
  400. Language                                 : Swedish
  401. Default                                  : No
  402. Forced                                   : No
  403. Text #28
  404. ID                                       : 30
  405. Format                                   : UTF-8
  406. Codec ID                                 : S_TEXT/UTF8
  407. Codec ID/Info                            : UTF-8 Plain Text
  408. Duration                                 : 1 h 35 min
  409. Bit rate                                 : 91 b/s
  410. Frame rate                               : 0.159 FPS
  411. Count of elements                        : 915
  412. Stream size                              : 64.0 KiB (0%)
  413. Language                                 : Thai
  414. Default                                  : No
  415. Forced                                   : No
  416. Text #29
  417. ID                                       : 31
  418. Format                                   : UTF-8
  419. Codec ID                                 : S_TEXT/UTF8
  420. Codec ID/Info                            : UTF-8 Plain Text
  421. Duration                                 : 1 h 35 min
  422. Bit rate                                 : 39 b/s
  423. Frame rate                               : 0.164 FPS
  424. Count of elements                        : 942
  425. Stream size                              : 27.4 KiB (0%)
  426. Language                                 : Turkish
  427. Default                                  : No
  428. Forced                                   : No
  429. Text #30
  430. ID                                       : 32
  431. Format                                   : UTF-8
  432. Codec ID                                 : S_TEXT/UTF8
  433. Codec ID/Info                            : UTF-8 Plain Text
  434. Duration                                 : 1 h 35 min
  435. Bit rate                                 : 61 b/s
  436. Frame rate                               : 0.158 FPS
  437. Count of elements                        : 906
  438. Stream size                              : 42.9 KiB (0%)
  439. Language                                 : Ukrainian
  440. Default                                  : No
  441. Forced                                   : No
  442. Text #31
  443. ID                                       : 33
  444. Format                                   : UTF-8
  445. Codec ID                                 : S_TEXT/UTF8
  446. Codec ID/Info                            : UTF-8 Plain Text
  447. Duration                                 : 1 h 35 min
  448. Bit rate                                 : 57 b/s
  449. Frame rate                               : 0.155 FPS
  450. Count of elements                        : 888
  451. Stream size                              : 40.3 KiB (0%)
  452. Language                                 : Vietnamese
  453. Default                                  : No
  454. Forced                                   : No
  455. Text #32
  456. ID                                       : 34
  457. Format                                   : UTF-8
  458. Codec ID                                 : S_TEXT/UTF8
  459. Codec ID/Info                            : UTF-8 Plain Text
  460. Duration                                 : 1 h 35 min
  461. Bit rate                                 : 39 b/s
  462. Frame rate                               : 0.158 FPS
  463. Count of elements                        : 906
  464. Stream size                              : 27.4 KiB (0%)
  465. Title                                    : Simplified
  466. Language                                 : Chinese (Simplied)
  467. Default                                  : No
  468. Forced                                   : No
  469. Text #33
  470. ID                                       : 35
  471. Format                                   : UTF-8
  472. Codec ID                                 : S_TEXT/UTF8
  473. Codec ID/Info                            : UTF-8 Plain Text
  474. Duration                                 : 1 h 35 min
  475. Bit rate                                 : 36 b/s
  476. Frame rate                               : 0.159 FPS
  477. Count of elements                        : 913
  478. Stream size                              : 25.4 KiB (0%)
  479. Title                                    : Traditional
  480. Language                                 : Chinese (Traditional)
  481. Default                                  : No
  482. Forced                                   : No
  483. Menu
  484. 01:31:36.000                             : en:End Credits
复制代码











回复

使用道具 举报

蓝光币
172
发表于 2023-1-8 23:14:49 | 显示全部楼层
楼主发贴辛苦了,谢谢楼主分享!我觉得蓝光电影网是注册对了!
回复 支持 反对

使用道具 举报

蓝光币
4
发表于 2023-1-9 00:38:16 | 显示全部楼层
楼主发贴辛苦了,谢谢楼主分享!我觉得蓝光电影网是注册对了!
回复 支持 反对

使用道具 举报

蓝光币
80
发表于 2023-1-9 10:01:04 | 显示全部楼层

其实我一直觉得楼主的品味不错!呵呵!蓝光电影网太棒了!
回复 支持 反对

使用道具 举报

蓝光币
145
发表于 2023-1-9 11:24:47 | 显示全部楼层

论坛不能没有像楼主这样的人才啊!我会一直支持蓝光电影网。
回复 支持 反对

使用道具 举报

蓝光币
0
发表于 2023-1-9 11:36:41 | 显示全部楼层
求助大佬, 如何获币
回复 支持 反对

使用道具 举报

蓝光币
88
发表于 2023-1-9 13:24:59 | 显示全部楼层

这东西我收了!谢谢楼主!蓝光电影网真好!
回复 支持 反对

使用道具 举报

蓝光币
190
发表于 2023-1-9 14:20:39 | 显示全部楼层
楼主发贴辛苦了,谢谢楼主分享!我觉得蓝光电影网是注册对了!
回复 支持 反对

使用道具 举报

蓝光币
663
发表于 2023-1-9 15:30:01 | 显示全部楼层
感谢分享
回复

使用道具 举报

蓝光币
6
发表于 2023-1-9 15:53:32 | 显示全部楼层
新手上路,回帖好习惯
回复 支持 反对

使用道具 举报

懒得打字嘛,点击右侧快捷回复 【右侧内容,后台自定义】
您需要登录后才可以回帖 登录 | 立即加入

本版积分规则

Archiver|小黑屋| 蓝光电影网 |网站地图

Copyright © 2021 Comsenz Inc. Powered by 蓝光电影网

蓝光电影网

本站内容由用户自主分享和转载自互联网,转载目的在于传递更多信息,并不代表本网赞同其观点和对其真实性负责。

如有侵权、违反国家法律政策行为,请联系我们,我们会第一时间及时清除和处理!

举报反馈邮箱:[email protected]

快速回复 返回顶部 返回列表