找回密码

蓝光电影网

查看: 37|回复: 0

[剧情] 忠诚.Devotion.2022.1080p.WEBRip.x264-RARBG 2.65GB

[复制链接]
蓝光币
1082
发表于 2023-1-9 06:12:36 | 显示全部楼层 |阅读模式


◎标  题 虔诚
◎译  名 虔诚:豪杰主义、友谊、牺牲的史诗故事 / 决战38度线(台) / Devotion: An Epic Story of Heroism /  Friendship /  and Sacrific
◎片  名 Devotion
◎年  代 2022
◎产  地 美国
◎类  别 剧情 / 行动 / 战争
◎语  言 英语 / 韩语
◎上映日期 2022-09-12(多伦多电影节) / 2022-10-28(美国)
◎IMDb评分 6.9/10 (941人评价)
◎IMDb链接 https://www.imdb.com/title/tt7693316/
◎豆瓣链接 https://movie.douban.com/subject/30163678/
◎片  长 138分钟
◎导  演 J·D·迪拉德 J.D. Dillard
◎编  剧 杰克·克莱恩 Jake Crane
       乔纳森·斯图尔特 Jonathan Stewart
       亚当·马科斯 Adam Makos
◎演  员 乔纳森·梅杰斯 Jonathan Majors
       格伦·鲍威尔 Glen Powell
       赛琳达·斯万 Serinda Swan
       托马斯·萨多斯基 Thomas Sadoski
       约瑟夫·克罗斯 Joseph Cross
       乔·乔纳斯 Joe Jonas
       达伦·卡加索夫 Daren Kagasoff
       斯宾瑟·内维尔 Spencer Neville
       马特·雷迪 Matt Riedy
       尼克·哈格罗弗 Nick Hargrove
       克里斯蒂娜·杰克逊 Christina Jackson
       阿德丁博·汤玛斯 Adetinpo Thomas
       迪安·丹顿 Dean Denton
       巴迪·沃特金斯 Buddy Watkins
       Todd Brown Todd Brown
       Julie Kessler Julie Kessler
       埃里克·梅塞施密特 Erik Messerschmidt
       威恩·托马斯 Wynn Thomas
◎简  介
  Black Label Media将把2015年亚当·马库斯的著作《虔诚:豪杰主义、友谊、牺牲的史诗故事》(Devotion: An Epic Story of Heroism, Friendship, and Sacrifice)搬上大银幕。小说围绕两名朝鲜战争的飞翔员展开,其中一位来自敷裕的英格兰家庭,另一个是来自密西西比黑人家庭。两人成为美国历史上顶尖的飞翔员。格伦·鲍威尔([隐藏人物])将参演影片。本片由杰克·克兰、乔纳森·斯图尔特打造剧本。
  1. Video
  2. ID                                       : 1
  3. Format                                   : AVC
  4. Format/Info                              : Advanced Video Codec
  5. Format profile                           : [email protected]
  6. Format settings                          : CABAC / 4 Ref Frames
  7. Format settings, CABAC                   : Yes
  8. Format settings, Reference frames        : 4 frames
  9. Codec ID                                 : avc1
  10. Codec ID/Info                            : Advanced Video Coding
  11. Duration                                 : 2 h 19 min
  12. Bit rate                                 : 2 500 kb/s
  13. Width                                    : 1 920 pixels
  14. Height                                   : 872 pixels
  15. Display aspect ratio                     : 2.2:1
  16. Frame rate mode                          : Constant
  17. Frame rate                               : 24.000 FPS
  18. Color space                              : YUV
  19. Chroma subsampling                       : 4:2:0
  20. Bit depth                                : 8 bits
  21. Scan type                                : Progressive
  22. Bits/(Pixel*Frame)                       : 0.062
  23. Stream size                              : 2.43 GiB (92%)
  24. Writing library                          : x264 core 152 r2851M ba24899
  25. Encoding settings                        : cabac=1 / ref=4 / deblock=1:-1:-1 / analyse=0x3:0x113 / me=umh / subme=9 / psy=1 / psy_rd=1.00:0.15 / mixed_ref=1 / me_range=24 / chroma_me=1 / trellis=2 / 8x8dct=1 / cqm=0 / deadzone=21,11 / fast_pskip=1 / chroma_qp_offset=-3 / threads=16 / lookahead_threads=4 / sliced_threads=0 / nr=0 / decimate=1 / interlaced=0 / bluray_compat=0 / constrained_intra=0 / bframes=3 / b_pyramid=2 / b_adapt=2 / b_bias=0 / direct=3 / weightb=1 / open_gop=0 / weightp=2 / keyint=250 / keyint_min=25 / scenecut=40 / intra_refresh=0 / rc_lookahead=50 / rc=2pass / mbtree=1 / bitrate=2500 / ratetol=1.0 / qcomp=0.60 / qpmin=0 / qpmax=69 / qpstep=4 / cplxblur=20.0 / qblur=0.5 / vbv_maxrate=31250 / vbv_bufsize=31250 / nal_hrd=none / filler=0 / ip_ratio=1.40 / aq=3:1.00
  26. Encoded date                             : UTC 2023-01-08 06:53:31
  27. Tagged date                              : UTC 2023-01-08 06:53:31
  28. Codec configuration box                  : avcC
  29. Audio
  30. ID                                       : 2
  31. Format                                   : AAC LC
  32. Format/Info                              : Advanced Audio Codec Low Complexity
  33. Codec ID                                 : mp4a-40-2
  34. Duration                                 : 2 h 19 min
  35. Duration_LastFrame                       : -11 ms
  36. Bit rate mode                            : Constant
  37. Bit rate                                 : 224 kb/s
  38. Channel(s)                               : 6 channels
  39. Channel layout                           : C L R Ls Rs LFE
  40. Sampling rate                            : 48.0 kHz
  41. Frame rate                               : 46.875 FPS (1024 SPF)
  42. Compression mode                         : Lossy
  43. Stream size                              : 223 MiB (8%)
  44. Language                                 : English
  45. Default                                  : Yes
  46. Alternate group                          : 1
  47. Encoded date                             : UTC 2023-01-08 06:53:31
  48. Tagged date                              : UTC 2023-01-08 06:53:31
复制代码











回复

使用道具 举报

懒得打字嘛,点击右侧快捷回复 【右侧内容,后台自定义】
您需要登录后才可以回帖 登录 | 立即加入

本版积分规则

Archiver|小黑屋| 蓝光电影网 |网站地图

Copyright © 2021 Comsenz Inc. Powered by 蓝光电影网

蓝光电影网

本站内容由用户自主分享和转载自互联网,转载目的在于传递更多信息,并不代表本网赞同其观点和对其真实性负责。

如有侵权、违反国家法律政策行为,请联系我们,我们会第一时间及时清除和处理!

举报反馈邮箱:[email protected]

快速回复 返回顶部 返回列表