找回密码

蓝光电影网

查看: 148|回复: 5

[剧情] 哭泣的草原[内封简繁中字].Trilogy.The.Weeping.Meadow.2004.1080p.BluRay.FLAC2.0.x264-PTer 24.39GB

[复制链接]
蓝光币
1082
发表于 2023-1-9 14:54:47 | 显示全部楼层 |阅读模式
抽泣的草原[内封简繁中字].Trilogy.The.Weeping.Meadow.2004.1080p.BluRay.FLAC2.0.x264-PTer 24.39GB-1.jpg

◎译   名  抽泣的草原 / Trilogy: The Weeping Meadow / 三部曲I:抽泣的绿地 / 希腊三部曲之抽泣的绿地 / 希腊首部曲:哀痛草原
◎片   名  Τριλογία 1: Το Λιβάδι που δακρύζει
◎年   代  2004
◎产   地  希腊 / 法国 / 意大利 / 德国
◎类   别  剧情 / 恋爱 / 历史
◎语   言  希腊语
◎上映 日期  2004-02-12
◎IMDb评分  7.9/10 from 4,914 users
◎IMDb链接  https://www.imdb.com/title/tt0366721/
◎豆瓣 评分  9.0/10 from 12393 users
◎豆瓣 链接  https://movie.douban.com/subject/1388180/
◎烂  番  茄  67%
◎Metacritic     73/100
◎片   长  Greece: 185 分钟
◎导   演  西奥·安哲罗普洛斯 Theodoros Angelopoulos
◎编   剧  西奥·安哲罗普洛斯 Theodoros Angelopoulos / 托尼诺·格拉 Tonino Guerra / 帕特罗斯·马可瑞斯 Petros Markaris / 乔治·席尔瓦尼 Giorgio Silvagni
◎主   演  亚历山德拉·艾迪尼 Alexandra Aidini
          尼克斯·普尔索尼迪斯 Nikos Poursanidis
          吉欧格·亚曼尼斯 Giorgos Armenis
          瓦西利斯·科洛沃斯 Vasilis Kolovos
          伊娃·科塔曼尼多 Eva Kotamanidou
          陶拉·斯塔索普洛斯 Toula Stathopoulou
          米哈利斯·扬纳托斯 Mihalis Giannatos
          格里戈里斯·埃万耶拉托斯 Grigoris Evangelatos
           George Houliaras


◎简  介

  1919年,俄国内战。为躲避烽火,斯拜罗斯(Vassilis Kolovos 饰)带着妻子戴娜(Thalia Argirioua 饰)和一双后代,随着难民潮辗转来到希腊。十几年曩昔,俄国难民不竭聚集,终极构成一个名为“新敖德萨”的小村落。斯拜罗斯的养女艾莉妮(Alexa ndra Aidini 饰)现在已长成落落风雅的标致姑娘,并和心爱的小伙同时也是她的非血缘兄长埃里克西斯(Nikos Poursanidis 饰)生下一对双胞胎。为了回避养父的控制与并吞,艾莉妮与爱人起头漫无尽头的流亡。时候进入1936年,一家人临时得以安宁。为追随音乐胡想,埃里克西斯离别妻儿远赴美国。在此以后,战争统治着这个天下,也摧毁了艾莉妮惨淡经营的家庭。在紊乱的大时代的布景下,他们随波逐流,生离死别……
  本片是“希腊三部曲”第一部,并荣获2004年欧洲电影节国际影评人费比西奖。

  1. Video
  2. ID : 1
  3. Format : AVC
  4. Format/Info : Advanced Video Codec
  5. Format profile : [email][email protected][/email]
  6. Format settings : CABAC / 5 Ref Frames
  7. Format settings, CABAC : Yes
  8. Format settings, ReFrames : 5 frames
  9. Codec ID : V_MPEG4/ISO/AVC
  10. Duration : 2 h 49 min
  11. Bit rate : 20.1 Mb/s
  12. Width : 1 654 pixels
  13. Height : 986 pixels
  14. Display aspect ratio : 5:3
  15. Frame rate mode : Constant
  16. Frame rate : 23.976 (24000/1001) FPS
  17. Color space : YUV
  18. Chroma subsampling : 4:2:0
  19. Bit depth : 8 bits
  20. Scan type : Progressive
  21. Bits/(Pixel*Frame) : 0.514
  22. Stream size : 23.8 GiB (98%)
  23. Writing library : x264 core 164 r3075+55M 97d28bb t_mod_New [(8 & 10)[email protected] X86_64]
  24. Encoding settings : cabac=1 / ref=5 / deblock=1:-3:-3 / analyse=0x3:0x133 / me=umh / subme=11 / psy=1 / fade_compensate=0.00 / psy_rd=1.00:0.00 / mixed_ref=1 / me_range=32 / chroma_me=1 / trellis=2 / 8x8dct=1 / cqm=0 / deadzone=21,11 / fast_pskip=0 / chroma_qp_offset=-2 / threads=24 / lookahead_threads=6 / sliced_threads=0 / nr=0 / decimate=0 / interlaced=0 / bluray_compat=0 / constrained_intra=0 / fgo=0 / bframes=16 / b_pyramid=2 / b_adapt=2 / b_bias=0 / direct=3 / weightb=1 / open_gop=0 / weightp=2 / keyint=250 / keyint_min=23 / scenecut=40 / intra_refresh=0 / rc_lookahead=250 / rc=crf / mbtree=0 / crf=18.3000 / qcomp=0.60 / qpmin=0:0:0 / qpmax=69:69:69 / qpstep=4 / vbv_maxrate=62500 / vbv_bufsize=78125 / crf_max=0.0 / nal_hrd=none / filler=0 / ip_ratio=1.30 / pb_ratio=1.20 / aq=3:0.65 / aq-sensitivity=10.00 / aq-factor=1.00:1.00:1.00 / aq2=0 / aq3=0 / zones=240222,244166,crf=22
  25. Language : Greek
  26. Default : Yes
  27. Forced : No
  28. Color range : Limited
  29. Color primaries : BT.709
  30. Matrix coefficients : BT.709

  31. Audio
  32. ID : 2
  33. Format : FLAC
  34. Format/Info : Free Lossless Audio Codec
  35. Codec ID : A_FLAC
  36. Duration : 2 h 49 min
  37. Bit rate mode : Variable
  38. Bit rate : 475 kb/s
  39. Channel(s) : 2 channels
  40. Channel positions : Front: L R
  41. Sampling rate : 48.0 kHz
  42. Frame rate : 10.417 FPS (4608 SPF)
  43. Bit depth : 16 bits
  44. Stream size : 577 MiB (2%)
  45. Writing library : Lavf56.40.101
  46. Language : Greek
  47. Default : Yes
  48. Forced : No

  49. Text #1
  50. ID : 3
  51. Format : UTF-8
  52. Codec ID : S_TEXT/UTF8
  53. Codec ID/Info : UTF-8 Plain Text
  54. Duration : 2 h 46 min
  55. Bit rate : 17 b/s
  56. Count of elements : 695
  57. Stream size : 21.6 KiB (0%)
  58. Language : English
  59. Default : No
  60. Forced : No

  61. Text #2
  62. ID : 4
  63. Format : UTF-8
  64. Codec ID : S_TEXT/UTF8
  65. Codec ID/Info : UTF-8 Plain Text
  66. Duration : 2 h 46 min
  67. Bit rate : 16 b/s
  68. Count of elements : 694
  69. Stream size : 19.7 KiB (0%)
  70. Language : Chinese
  71. Default : No
  72. Forced : No

  73. Text #3
  74. ID : 5
  75. Format : UTF-8
  76. Codec ID : S_TEXT/UTF8
  77. Codec ID/Info : UTF-8 Plain Text
  78. Duration : 2 h 46 min
  79. Bit rate : 16 b/s
  80. Count of elements : 694
  81. Stream size : 19.7 KiB (0%)
  82. Language : Chinese
  83. Default : No
  84. Forced : No

  85. Menu
  86. 00:00:00.000 : en:Chapter 1
  87. 00:06:07.967 : en:Chapter 2
  88. 00:16:50.209 : en:Chapter 3
  89. 00:24:02.474 : en:Chapter 4
  90. 00:35:04.502 : en:Chapter 5
  91. 00:44:54.058 : en:Chapter 6
  92. 00:55:47.844 : en:Chapter 7
  93. 01:08:50.025 : en:Chapter 8
  94. 01:13:46.288 : en:Chapter 9
  95. 01:19:53.688 : en:Chapter 10
  96. 01:28:54.362 : en:Chapter 11
  97. 01:38:42.449 : en:Chapter 12
  98. 01:51:59.612 : en:Chapter 13
  99. 02:05:43.402 : en:Chapter 14
  100. 02:11:13.765 : en:Chapter 15
  101. 02:19:59.524 : en:Chapter 16
  102. 02:33:34.238 : en:Chapter 17
  103. 02:46:59.275 : en:Chapter 18
  104. 02:49:26.689 : en:Chapter 19
复制代码
                    Source                                                    Encode

抽泣的草原[内封简繁中字].Trilogy.The.Weeping.Meadow.2004.1080p.BluRay.FLAC2.0.x264-PTer 24.39GB-2.png 抽泣的草原[内封简繁中字].Trilogy.The.Weeping.Meadow.2004.1080p.BluRay.FLAC2.0.x264-PTer 24.39GB-3.png
抽泣的草原[内封简繁中字].Trilogy.The.Weeping.Meadow.2004.1080p.BluRay.FLAC2.0.x264-PTer 24.39GB-4.png 抽泣的草原[内封简繁中字].Trilogy.The.Weeping.Meadow.2004.1080p.BluRay.FLAC2.0.x264-PTer 24.39GB-5.png
抽泣的草原[内封简繁中字].Trilogy.The.Weeping.Meadow.2004.1080p.BluRay.FLAC2.0.x264-PTer 24.39GB-6.png 抽泣的草原[内封简繁中字].Trilogy.The.Weeping.Meadow.2004.1080p.BluRay.FLAC2.0.x264-PTer 24.39GB-7.png
抽泣的草原[内封简繁中字].Trilogy.The.Weeping.Meadow.2004.1080p.BluRay.FLAC2.0.x264-PTer 24.39GB-8.png 抽泣的草原[内封简繁中字].Trilogy.The.Weeping.Meadow.2004.1080p.BluRay.FLAC2.0.x264-PTer 24.39GB-9.png
抽泣的草原[内封简繁中字].Trilogy.The.Weeping.Meadow.2004.1080p.BluRay.FLAC2.0.x264-PTer 24.39GB-10.png 抽泣的草原[内封简繁中字].Trilogy.The.Weeping.Meadow.2004.1080p.BluRay.FLAC2.0.x264-PTer 24.39GB-11.png
抽泣的草原[内封简繁中字].Trilogy.The.Weeping.Meadow.2004.1080p.BluRay.FLAC2.0.x264-PTer 24.39GB-12.png 抽泣的草原[内封简繁中字].Trilogy.The.Weeping.Meadow.2004.1080p.BluRay.FLAC2.0.x264-PTer 24.39GB-13.png
抽泣的草原[内封简繁中字].Trilogy.The.Weeping.Meadow.2004.1080p.BluRay.FLAC2.0.x264-PTer 24.39GB-14.png 抽泣的草原[内封简繁中字].Trilogy.The.Weeping.Meadow.2004.1080p.BluRay.FLAC2.0.x264-PTer 24.39GB-15.png










回复

使用道具 举报

蓝光币
682
发表于 2023-1-9 16:51:04 | 显示全部楼层
谢谢分享!!!!!
回复

使用道具 举报

蓝光币
52
发表于 2023-1-9 23:01:03 | 显示全部楼层
情节这么好的片子,谢谢分享。
回复 支持 反对

使用道具 举报

蓝光币
193
发表于 2023-1-10 12:13:45 | 显示全部楼层
感谢楼主,再发精品
回复 支持 反对

使用道具 举报

蓝光币
227
发表于 2023-1-10 14:50:24 | 显示全部楼层
楼主发贴辛苦了,谢谢楼主分享!我觉得蓝光电影网是注册对了!
回复 支持 反对

使用道具 举报

蓝光币
688
发表于 2023-1-11 00:22:17 | 显示全部楼层
哦,原来草原是这么哭泣的,有海报看着就是舒服。
回复 支持 反对

使用道具 举报

懒得打字嘛,点击右侧快捷回复 【右侧内容,后台自定义】
您需要登录后才可以回帖 登录 | 立即加入

本版积分规则

Archiver|小黑屋| 蓝光电影网 |网站地图

Copyright © 2021 Comsenz Inc. Powered by 蓝光电影网

蓝光电影网

本站内容由用户自主分享和转载自互联网,转载目的在于传递更多信息,并不代表本网赞同其观点和对其真实性负责。

如有侵权、违反国家法律政策行为,请联系我们,我们会第一时间及时清除和处理!

举报反馈邮箱:[email protected]

快速回复 返回顶部 返回列表