找回密码

蓝光电影网

查看: 20|回复: 0

[剧情] 化身博士.Dr.Jekyll.and.Mr.Hyde.1931.720p.BluRay.x264-USURY 4.42GB

[复制链接]
蓝光币
1084
发表于 2023-1-10 16:08:47 | 显示全部楼层 |阅读模式


◎标  题 化身博士
◎片  名 Dr. Jekyll and Mr. Hyde
◎年  代 1931
◎产  地 美国
◎类  别 剧情 / 科幻 / 可骇
◎语  言 英语
◎上映日期 1931-12-31(纽约首映)
◎IMDb评分 7.6/10 (14301人评价)
◎IMDb链接 https://www.imdb.com/title/tt0022835/
◎豆瓣评分 8.1/10 (2449人评价)
◎豆瓣链接 https://movie.douban.com/subject/1293893/
◎片  长 98 分钟 / 96 分钟(TCM print)
◎导  演 鲁本·马莫利安 Rouben Mamoulian
◎编  剧 珀西·希思 Percy Heath
       罗伯特·路易斯·史蒂文森 Robert Louis Stevenson
       萨莫尔·霍芬斯蒂安 Samuel Hoffenstein
◎演  员 弗雷德里克·马奇 Fredric March
       米利亚姆·霍普金斯 Miriam Hopkins
       罗丝·霍巴德 Rose Hobart
◎简  介
    基克尔(弗雷德里克·马奇 Fredric March 饰)是一位常识很是渊博的科学家,他将终生的履历都投注到了摸索人性的善恶奇妙当中,而且终极制造出了一种可怕的药剂,这类药剂可以令基克尔化身成为海德师长,基克尔将自己一切的恶意和坏动机都投射到了海德的大脑里。白天,基克尔行医救人乐善好施,待到夜幕来临,海德师长便会现身,杀人害命,无恶不作。                                                                      基克尔有一位名叫伊芙(米利亚姆·霍普金斯 Miriam Hopkins 饰)的未婚妻,两人之间的豪情很是的要好,但是,海德师长的存在让基克尔不自觉的被名叫碧翠丝(Eric Wilton 饰)的汗漫妓女所吸引。割裂的品德让基克尔感应万分的疾苦,他想要消灭海德师长。
  1. Video
  2. ID                                       : 1
  3. Format                                   : AVC
  4. Format/Info                              : Advanced Video Codec
  5. Format profile                           : [email protected]
  6. Format settings                          : CABAC / 13 Ref Frames
  7. Format settings, CABAC                   : Yes
  8. Format settings, Reference frames        : 13 frames
  9. Codec ID                                 : V_MPEG4/ISO/AVC
  10. Duration                                 : 1 h 36 min
  11. Bit rate                                 : 5 908 kb/s
  12. Width                                    : 864 pixels
  13. Height                                   : 720 pixels
  14. Display aspect ratio                     : 1.200
  15. Frame rate mode                          : Constant
  16. Frame rate                               : 23.976 (24000/1001) FPS
  17. Color space                              : YUV
  18. Chroma subsampling                       : 4:2:0
  19. Bit depth                                : 8 bits
  20. Scan type                                : Progressive
  21. Bits/(Pixel*Frame)                       : 0.396
  22. Stream size                              : 3.96 GiB (90%)
  23. Writing library                          : x264 core 164 r3101 b093bbe
  24. Encoding settings                        : cabac=1 / ref=13 / deblock=1:-3:-3 / analyse=0x3:0x133 / me=umh / subme=10 / psy=1 / psy_rd=1.00:0.15 / mixed_ref=1 / me_range=24 / chroma_me=1 / trellis=2 / 8x8dct=1 / cqm=0 / deadzone=21,11 / fast_pskip=1 / chroma_qp_offset=-3 / threads=18 / lookahead_threads=3 / sliced_threads=0 / nr=0 / decimate=1 / interlaced=0 / bluray_compat=0 / constrained_intra=0 / bframes=8 / b_pyramid=2 / b_adapt=2 / b_bias=0 / direct=3 / weightb=1 / open_gop=0 / weightp=2 / keyint=250 / keyint_min=23 / scenecut=40 / intra_refresh=0 / rc_lookahead=60 / rc=crf / mbtree=1 / crf=17.0 / qcomp=0.60 / qpmin=0 / qpmax=69 / qpstep=4 / ip_ratio=1.40 / aq=3:0.50
  25. Language                                 : English
  26. Default                                  : Yes
  27. Forced                                   : No
  28. Audio #1
  29. ID                                       : 2
  30. Format                                   : FLAC
  31. Format/Info                              : Free Lossless Audio Codec
  32. Codec ID                                 : A_FLAC
  33. Duration                                 : 1 h 36 min
  34. Bit rate mode                            : Variable
  35. Bit rate                                 : 498 kb/s
  36. Channel(s)                               : 2 channels
  37. Channel layout                           : L R
  38. Sampling rate                            : 48.0 kHz
  39. Frame rate                               : 11.719 FPS (4096 SPF)
  40. Bit depth                                : 24 bits
  41. Compression mode                         : Lossless
  42. Stream size                              : 342 MiB (8%)
  43. Writing library                          : libFLAC 1.2.1 (UTC 2007-09-17)
  44. Language                                 : English
  45. Default                                  : Yes
  46. Forced                                   : No
  47. Audio #2
  48. ID                                       : 3
  49. Format                                   : AAC LC
  50. Format/Info                              : Advanced Audio Codec Low Complexity
  51. Codec ID                                 : A_AAC-2
  52. Duration                                 : 1 h 36 min
  53. Bit rate                                 : 84.5 kb/s
  54. Channel(s)                               : 2 channels
  55. Channel layout                           : L R
  56. Sampling rate                            : 48.0 kHz
  57. Frame rate                               : 46.875 FPS (1024 SPF)
  58. Compression mode                         : Lossy
  59. Delay relative to video                  : 9 ms
  60. Stream size                              : 58.1 MiB (1%)
  61. Title                                    : English Commentary by Dr. Steven Haberman and Constantine Nasr
  62. Language                                 : English
  63. Default                                  : No
  64. Forced                                   : No
  65. Audio #3
  66. ID                                       : 4
  67. Format                                   : AAC LC
  68. Format/Info                              : Advanced Audio Codec Low Complexity
  69. Codec ID                                 : A_AAC-2
  70. Duration                                 : 1 h 36 min
  71. Bit rate                                 : 87.1 kb/s
  72. Channel(s)                               : 2 channels
  73. Channel layout                           : L R
  74. Sampling rate                            : 48.0 kHz
  75. Frame rate                               : 46.875 FPS (1024 SPF)
  76. Compression mode                         : Lossy
  77. Delay relative to video                  : 9 ms
  78. Stream size                              : 59.9 MiB (1%)
  79. Title                                    : English Commentary by Greg Mank
  80. Language                                 : English
  81. Default                                  : No
  82. Forced                                   : No
  83. Text #1
  84. ID                                       : 5
  85. Format                                   : UTF-8
  86. Codec ID                                 : S_TEXT/UTF8
  87. Codec ID/Info                            : UTF-8 Plain Text
  88. Duration                                 : 1 h 33 min
  89. Bit rate                                 : 60 b/s
  90. Count of elements                        : 1268
  91. Stream size                              : 41.1 KiB (0%)
  92. Title                                    : English
  93. Language                                 : English
  94. Default                                  : No
  95. Forced                                   : No
  96. Text #2
  97. ID                                       : 6
  98. Format                                   : UTF-8
  99. Codec ID                                 : S_TEXT/UTF8
  100. Codec ID/Info                            : UTF-8 Plain Text
  101. Duration                                 : 1 h 35 min
  102. Bit rate                                 : 64 b/s
  103. Count of elements                        : 1418
  104. Stream size                              : 45.2 KiB (0%)
  105. Title                                    : English SDH
  106. Language                                 : English
  107. Default                                  : No
  108. Forced                                   : No
  109. Text #3
  110. ID                                       : 7
  111. Format                                   : PGS
  112. Muxing mode                              : zlib
  113. Codec ID                                 : S_HDMV/PGS
  114. Codec ID/Info                            : Picture based subtitle format used on BDs/HD-DVDs
  115. Duration                                 : 1 h 35 min
  116. Bit rate                                 : 12.6 kb/s
  117. Count of elements                        : 2836
  118. Stream size                              : 8.56 MiB (0%)
  119. Title                                    : English SDH
  120. Language                                 : English
  121. Default                                  : No
  122. Forced                                   : No
  123. Menu
  124. 00:00:00.000                             : en:00:00:00.000
  125. 00:01:10.070                             : en:00:01:10.070
  126. 00:04:51.500                             : en:00:04:51.500
  127. 00:07:30.659                             : en:00:07:30.659
  128. 00:10:32.006                             : en:00:10:32.006
  129. 00:15:14.580                             : en:00:15:14.580
  130. 00:18:18.848                             : en:00:18:18.848
  131. 00:23:31.410                             : en:00:23:31.410
  132. 00:31:16.875                             : en:00:31:16.875
  133. 00:34:14.803                             : en:00:34:14.803
  134. 00:36:57.841                             : en:00:36:57.841
  135. 00:40:07.947                             : en:00:40:07.947
  136. 00:45:05.703                             : en:00:45:05.703
  137. 00:48:05.257                             : en:00:48:05.257
  138. 00:53:05.182                             : en:00:53:05.182
  139. 00:57:16.350                             : en:00:57:16.350
  140. 00:59:31.526                             : en:00:59:31.526
  141. 01:05:14.911                             : en:01:05:14.911
  142. 01:08:27.186                             : en:01:08:27.186
  143. 01:12:14.455                             : en:01:12:14.455
  144. 01:19:04.156                             : en:01:19:04.156
  145. 01:20:54.850                             : en:01:20:54.850
  146. 01:27:55.937                             : en:01:27:55.937
  147. 01:30:51.488                             : en:01:30:51.488
  148. 01:35:23.718                             : en:01:35:23.718
  149. 01:35:43.738                             : en:01:35:43.738
复制代码









回复

使用道具 举报

懒得打字嘛,点击右侧快捷回复 【右侧内容,后台自定义】
您需要登录后才可以回帖 登录 | 立即加入

本版积分规则

Archiver|小黑屋| 蓝光电影网 |网站地图

Copyright © 2021 Comsenz Inc. Powered by 蓝光电影网

蓝光电影网

本站内容由用户自主分享和转载自互联网,转载目的在于传递更多信息,并不代表本网赞同其观点和对其真实性负责。

如有侵权、违反国家法律政策行为,请联系我们,我们会第一时间及时清除和处理!

举报反馈邮箱:[email protected]

快速回复 返回顶部 返回列表