找回密码

蓝光电影网

查看: 51|回复: 0

[剧情] 她说.She.Said.2022.1080p.BluRay.x264.DTS-HD.MA.5.1-MT 15.73GB

[复制链接]
蓝光币
1078
发表于 2023-1-10 16:11:11 | 显示全部楼层 |阅读模式


◎标  题 她说
◎译  名 她有话要说(台)
◎片  名 She Said
◎年  代 2022
◎产  地 美国
◎类  别 剧情
◎语  言 英语
◎上映日期 2022-10-13(纽约电影节) / 2022-11-18(美国)
◎IMDb评分 7.4/10 (1968人评价)
◎IMDb链接 https://www.imdb.com/title/tt14807308/
◎豆瓣评分 8.2/10 (334人评价)
◎豆瓣链接 https://movie.douban.com/subject/35493136/
◎片  长 135分钟
◎导  演 玛丽亚·施拉德 Maria Schrader
◎编  剧 丽贝卡·伦科维茨 Rebecca Lenkiewicz
       乔迪·坎托尔 Jodi Kantor
       梅根·吐赫 Megan Twohey
       丽贝卡·科贝特 Rebecca Corbett
◎演  员 凯瑞·穆里根 Carey Mulligan
       佐伊·卡赞 Zoe Kazan
       派翠西娅·克拉克森 Patricia Clarkson
       安德鲁·布劳尔 Andre Braugher
       詹妮弗·艾莉 Jennifer Ehle
       安杰拉·耶奥 Angela Yeoh
       马伦·赫伊 Maren Heary
       肖恩·卡伦 Sean Cullen
       阿纳斯塔西娅·巴兹 Anastasia Barzee
       凯莉麦奎尔 Keilly McQuail
       希拉里·格瑞尔 Hilary Greer
       蒂娜·王-卢 Tina WongLu
       南希·艾伦·萧尔 Nancy Ellen Shore
       艾玛·奥康纳 Emma O'Connor
       埃尔·格雷厄姆 Elle Graham
       杰森·巴宾斯基 Jason Babinsky
       皮特·弗雷德曼 Peter Friedman
       朱迪丝·戈德雷什 Judith Godrèche
       扎克·格雷尼尔 Zach Grenier
       麦克·休斯顿 Mike Houston
       詹姆士·奥斯汀·约翰逊 James Austin Johnson
       艾什莉·贾德 Ashley Judd
       黛拉·纳普 Dalya Knapp
       玛伦·洛德 Maren Lord
       萨曼莎·莫顿 Samantha Morton
       汤姆·派福瑞 Tom Pelphrey
       亚当·沙皮罗 Adam Shapiro
       莫莉·温德索尔 Molly Windsor
       比尔·奥雷利 Bill O'Reilly
       汉斯约格·白里奇 Hansjörg Weißbrich
◎简  介
  故事聚焦《纽约时报》女记者乔迪·坎托尔(佐伊·卡赞 饰)与梅根·吐赫(凯瑞·穆里根 饰),她们联手撰写了这个世代最重要的一篇报道,进而激发#MeToo活动,不单揭发了好莱坞数十年来默许的性侵真相,也永久改变了美国文化。                                    
                                影片按照畅销书《她说:打破性骚扰的故事,帮助扑灭了一场活动》(She Said: Breaking the Sexual Harassment Story That Helped Ignite a Movement)改编。
  1. Video
  2. ID                                       : 1
  3. Format                                   : AVC
  4. Format/Info                              : Advanced Video Codec
  5. Format profile                           : [email protected]
  6. Format settings                          : CABAC / 4 Ref Frames
  7. Format settings, CABAC                   : Yes
  8. Format settings, Reference frames        : 4 frames
  9. Codec ID                                 : V_MPEG4/ISO/AVC
  10. Duration                                 : 2 h 9 min
  11. Bit rate                                 : 14.1 Mb/s
  12. Width                                    : 1 920 pixels
  13. Height                                   : 1 040 pixels
  14. Display aspect ratio                     : 1.85:1
  15. Frame rate mode                          : Constant
  16. Frame rate                               : 23.976 (24000/1001) FPS
  17. Color space                              : YUV
  18. Chroma subsampling                       : 4:2:0
  19. Bit depth                                : 8 bits
  20. Scan type                                : Progressive
  21. Bits/(Pixel*Frame)                       : 0.294
  22. Stream size                              : 12.7 GiB (81%)
  23. Writing library                          : x264 core 157 r2938 2b00a84 [email protected] Mod
  24. Encoding settings                        : cabac=1 / ref=4 / deblock=1:-3:-3 / analyse=0x3:0x133 / me=umh / subme=10 / psy=1 / psy_rd=1.05:0.00 / mixed_ref=1 / me_range=32 / chroma_me=1 / trellis=2 / 8x8dct=1 / cqm=0 / deadzone=21,11 / fast_pskip=0 / chroma_qp_offset=-2 / threads=12 / lookahead_threads=2 / sliced_threads=0 / nr=0 / decimate=0 / interlaced=0 / bluray_compat=0 / constrained_intra=0 / bframes=8 / b_pyramid=2 / b_adapt=2 / b_bias=0 / direct=3 / weightb=1 / open_gop=0 / weightp=2 / keyint=250 / keyint_min=24 / scenecut=40 / intra_refresh=0 / rc_lookahead=250 / rc=crf / mbtree=0 / crf=16.8 / qcomp=0.60 / qpmin=0 / qpmax=69 / qpstep=4 / vbv_maxrate=62500 / vbv_bufsize=78125 / crf_max=0.0 / nal_hrd=none / filler=0 / ip_ratio=1.30 / pb_ratio=1.20 / aq=3:0.80
  25. Language                                 : English
  26. Default                                  : Yes
  27. Forced                                   : No
  28. Color range                              : Limited
  29. Color primaries                          : BT.709
  30. Matrix coefficients                      : BT.709
  31. Audio
  32. ID                                       : 2
  33. Format                                   : DTS XLL
  34. Format/Info                              : Digital Theater Systems
  35. Commercial name                          : DTS-HD Master Audio
  36. Codec ID                                 : A_DTS
  37. Duration                                 : 2 h 9 min
  38. Bit rate mode                            : Variable
  39. Bit rate                                 : 3 345 kb/s
  40. Channel(s)                               : 6 channels
  41. Channel layout                           : C L R Ls Rs LFE
  42. Sampling rate                            : 48.0 kHz
  43. Frame rate                               : 93.750 FPS (512 SPF)
  44. Bit depth                                : 24 bits
  45. Compression mode                         : Lossless
  46. Stream size                              : 3.02 GiB (19%)
  47. Language                                 : English
  48. Default                                  : Yes
  49. Forced                                   : No
  50. Text #1
  51. ID                                       : 3
  52. Format                                   : UTF-8
  53. Codec ID                                 : S_TEXT/UTF8
  54. Codec ID/Info                            : UTF-8 Plain Text
  55. Duration                                 : 2 h 0 min
  56. Bit rate                                 : 71 b/s
  57. Frame rate                               : 0.258 FPS
  58. Count of elements                        : 1862
  59. Stream size                              : 63.2 KiB (0%)
  60. Language                                 : English
  61. Default                                  : Yes
  62. Forced                                   : No
  63. Text #2
  64. ID                                       : 4
  65. Format                                   : UTF-8
  66. Codec ID                                 : S_TEXT/UTF8
  67. Codec ID/Info                            : UTF-8 Plain Text
  68. Duration                                 : 2 h 0 min
  69. Bit rate                                 : 75 b/s
  70. Frame rate                               : 0.272 FPS
  71. Count of elements                        : 1972
  72. Stream size                              : 67.3 KiB (0%)
  73. Title                                    : SDH
  74. Language                                 : English
  75. Default                                  : No
  76. Forced                                   : No
  77. Text #3
  78. ID                                       : 5
  79. Format                                   : PGS
  80. Muxing mode                              : zlib
  81. Codec ID                                 : S_HDMV/PGS
  82. Codec ID/Info                            : Picture based subtitle format used on BDs/HD-DVDs
  83. Duration                                 : 2 h 0 min
  84. Bit rate                                 : 53.4 kb/s
  85. Frame rate                               : 0.552 FPS
  86. Count of elements                        : 4004
  87. Stream size                              : 46.2 MiB (0%)
  88. Language                                 : English
  89. Default                                  : No
  90. Forced                                   : No
  91. Menu
  92. 00:00:00.000                             : en:Chapter 01
  93. 00:05:08.975                             : en:Chapter 02
  94. 00:10:08.441                             : en:Chapter 03
  95. 00:16:42.210                             : en:Chapter 04
  96. 00:24:04.193                             : en:Chapter 05
  97. 00:30:52.726                             : en:Chapter 06
  98. 00:38:18.671                             : en:Chapter 07
  99. 00:44:01.472                             : en:Chapter 08
  100. 00:51:38.554                             : en:Chapter 09
  101. 00:57:29.655                             : en:Chapter 10
  102. 01:10:16.712                             : en:Chapter 11
  103. 01:18:21.238                             : en:Chapter 12
  104. 01:23:29.504                             : en:Chapter 13
  105. 01:32:26.750                             : en:Chapter 14
  106. 01:36:46.884                             : en:Chapter 15
  107. 01:40:46.249                             : en:Chapter 16
  108. 01:46:01.438                             : en:Chapter 17
  109. 01:50:34.878                             : en:Chapter 18
  110. 01:57:02.390                             : en:Chapter 19
  111. 02:02:46.359                             : en:Chapter 20
复制代码











回复

使用道具 举报

懒得打字嘛,点击右侧快捷回复 【右侧内容,后台自定义】
您需要登录后才可以回帖 登录 | 立即加入

本版积分规则

Archiver|小黑屋| 蓝光电影网 |网站地图

Copyright © 2021 Comsenz Inc. Powered by 蓝光电影网

蓝光电影网

本站内容由用户自主分享和转载自互联网,转载目的在于传递更多信息,并不代表本网赞同其观点和对其真实性负责。

如有侵权、违反国家法律政策行为,请联系我们,我们会第一时间及时清除和处理!

举报反馈邮箱:[email protected]

快速回复 返回顶部 返回列表