找回密码

蓝光电影网

查看: 66|回复: 0

[剧情] 西北前线.North.West.Frontier.1959.EXTENDED.1080p.BluRay.x264.DTS-NOGRP 9.14GB

[复制链接]
蓝光币
1082
发表于 2023-1-10 16:11:12 | 显示全部楼层 |阅读模式


◎标  题 西北火线
◎译  名 西北边境 / Flame Over India / Empress of India / Northwest Frontier
◎片  名 North West Frontier
◎年  代 1959
◎产  地 英国
◎类  别 剧情 / 冒险
◎语  言 英语 / 印地语
◎上映日期 1960-04-29
◎IMDb评分 7.1/10 (2619人评价)
◎IMDb链接 https://www.imdb.com/title/tt0053126/
◎豆瓣链接 https://movie.douban.com/subject/3168782/
◎片  长 129 分钟
◎导  演 J·李·汤普森 J. Lee Thompson
◎编  剧 弗兰克·S·纽金特 Frank S. Nugent
       Will Price Will Price
       Robin Estridge Robin Estridge
◎演  员 肯尼思·莫尔 Kenneth More
       劳伦·白考尔 Lauren Bacall
       赫伯特·罗姆 Herbert Lom
       维尔弗雷德·海德-怀特 Wilfrid Hyde-White
       I·S·乔哈尔 I.S. Johar
       厄休拉·杰尼斯 Ursula Jeans
       伊恩·亨特 Ian Hunter
       杰克·格威利姆 Jack Gwillim
       Basil Hoskins Basil Hoskins
       穆特里·凯尔索尔 Moultrie Kelsall
       Lionel Murton Lionel Murton
       艾伦·卡思伯森 Allan Cuthbertson
       霍华德·马里昂-克劳福德 Howard Marion-Crawford
       Earl St. John Earl St. John
       Mischa Spoliansky Mischa Spoliansky
       杰弗里·昂斯沃思 Geoffrey Unsworth
       Frederick Wilson Frederick Wilson
       Alex Vetchinsky Alex Vetchinsky
       Francisco Prósper Francisco Prósper
       Yvonne Caffin Yvonne Caffin
       W.T. Partleton W.T. Partleton
◎简  介
  In British India, a young prince must be taken to safey across rebel-held territory, and an old train is the only way to do it.
  1. Video
  2. ID                                       : 1
  3. Format                                   : AVC
  4. Format/Info                              : Advanced Video Codec
  5. Format profile                           : [email protected]
  6. Format settings                          : CABAC / 5 Ref Frames
  7. Format settings, CABAC                   : Yes
  8. Format settings, Reference frames        : 5 frames
  9. Codec ID                                 : V_MPEG4/ISO/AVC
  10. Duration                                 : 2 h 10 min
  11. Bit rate                                 : 8 554 kb/s
  12. Width                                    : 1 920 pixels
  13. Height                                   : 816 pixels
  14. Display aspect ratio                     : 2.35:1
  15. Frame rate mode                          : Constant
  16. Frame rate                               : 23.976 (24000/1001) FPS
  17. Color space                              : YUV
  18. Chroma subsampling                       : 4:2:0
  19. Bit depth                                : 8 bits
  20. Scan type                                : Progressive
  21. Bits/(Pixel*Frame)                       : 0.228
  22. Stream size                              : 7.77 GiB (85%)
  23. Writing library                          : x264 core 164 r3103 941cae6
  24. Encoding settings                        : cabac=1 / ref=5 / deblock=1:-3:-3 / analyse=0x3:0x113 / me=umh / subme=8 / psy=1 / psy_rd=1.00:0.15 / mixed_ref=1 / me_range=16 / chroma_me=1 / trellis=1 / 8x8dct=1 / cqm=0 / deadzone=21,11 / fast_pskip=0 / chroma_qp_offset=-3 / threads=6 / lookahead_threads=1 / sliced_threads=0 / nr=0 / decimate=1 / interlaced=0 / bluray_compat=0 / constrained_intra=0 / bframes=3 / b_pyramid=2 / b_adapt=2 / b_bias=0 / direct=3 / weightb=1 / open_gop=0 / weightp=2 / keyint=250 / keyint_min=23 / scenecut=40 / intra_refresh=0 / rc_lookahead=50 / rc=crf / mbtree=1 / crf=20.0 / qcomp=0.60 / qpmin=0 / qpmax=69 / qpstep=4 / ip_ratio=1.40 / aq=1:1.00
  25. Language                                 : English
  26. Default                                  : No
  27. Forced                                   : No
  28. Color range                              : Limited
  29. Color primaries                          : BT.709
  30. Transfer characteristics                 : BT.709
  31. Matrix coefficients                      : BT.709
  32. Audio
  33. ID                                       : 2
  34. Format                                   : DTS
  35. Format/Info                              : Digital Theater Systems
  36. Codec ID                                 : A_DTS
  37. Duration                                 : 2 h 10 min
  38. Bit rate mode                            : Constant
  39. Bit rate                                 : 1 509 kb/s
  40. Channel(s)                               : 2 channels
  41. Channel layout                           : L R
  42. Sampling rate                            : 48.0 kHz
  43. Frame rate                               : 93.750 FPS (512 SPF)
  44. Bit depth                                : 24 bits
  45. Compression mode                         : Lossy
  46. Stream size                              : 1.37 GiB (15%)
  47. Language                                 : English
  48. Default                                  : No
  49. Forced                                   : No
  50. Text #1
  51. ID                                       : 3
  52. Format                                   : UTF-8
  53. Codec ID                                 : S_TEXT/UTF8
  54. Codec ID/Info                            : UTF-8 Plain Text
  55. Duration                                 : 2 h 6 min
  56. Bit rate                                 : 52 b/s
  57. Frame rate                               : 0.153 FPS
  58. Count of elements                        : 1164
  59. Stream size                              : 48.7 KiB (0%)
  60. Language                                 : English
  61. Default                                  : Yes
  62. Forced                                   : No
  63. Text #2
  64. ID                                       : 4
  65. Format                                   : UTF-8
  66. Codec ID                                 : S_TEXT/UTF8
  67. Codec ID/Info                            : UTF-8 Plain Text
  68. Duration                                 : 1 h 48 min
  69. Bit rate                                 : 28 b/s
  70. Frame rate                               : 0.074 FPS
  71. Count of elements                        : 483
  72. Stream size                              : 22.2 KiB (0%)
  73. Language                                 : German
  74. Default                                  : No
  75. Forced                                   : Yes
  76. Menu
  77. 00:00:00.000                             : Chapter 01
  78. 00:15:31.388                             : Chapter 02
  79. 00:27:43.703                             : Chapter 03
  80. 00:47:45.779                             : Chapter 04
  81. 01:08:58.759                             : Chapter 05
  82. 01:32:39.512                             : Chapter 06
  83. 01:48:26.041                             : Chapter 07
  84. 02:09:20.669                             : Chapter 08
复制代码











回复

使用道具 举报

懒得打字嘛,点击右侧快捷回复 【右侧内容,后台自定义】
您需要登录后才可以回帖 登录 | 立即加入

本版积分规则

Archiver|小黑屋| 蓝光电影网 |网站地图

Copyright © 2021 Comsenz Inc. Powered by 蓝光电影网

蓝光电影网

本站内容由用户自主分享和转载自互联网,转载目的在于传递更多信息,并不代表本网赞同其观点和对其真实性负责。

如有侵权、违反国家法律政策行为,请联系我们,我们会第一时间及时清除和处理!

举报反馈邮箱:[email protected]

快速回复 返回顶部 返回列表