找回密码

蓝光电影网

查看: 39|回复: 0

[剧情] 盗血英魂.The.Turning.Point.1952.1080p.BluRay.x264-USURY 8.38GB

[复制链接]
蓝光币
1080
发表于 2023-1-10 16:11:13 | 显示全部楼层 |阅读模式


◎标  题 盗血英灵
◎译  名 转折点
◎片  名 The Turning Point
◎年  代 1952
◎产  地 美国
◎类  别 剧情 / 犯罪 / 黑色电影
◎语  言 英语
◎上映日期 1952-11-15
◎IMDb评分 6.9/10 (1439人评价)
◎IMDb链接 https://www.imdb.com/title/tt0045267/
◎豆瓣链接 https://movie.douban.com/subject/1303108/
◎片  长 85 分钟
◎导  演 威廉·迪亚特尔 William Dieterle
◎编  剧 霍勒斯·麦科伊 Horace McCoy
       沃伦·达夫 Warren Duff
◎演  员 威廉·霍尔登 William Holden
       艾德蒙·奥布莱恩 Edmond O'Brien
       亚历克西斯·史姑娘 Alexis Smith
       拉尔夫·蒙哥马利 Ralph Montgomery
       Adele Longmire Adele Longmire
       乔尔·马斯顿 Joel Marston
       李·费尔普斯 Lee Phelps
       Tom Moore Tom Moore
       Albin Robeling Albin Robeling
       罗伯特·洛克威尔 Robert Rockwell
       玛丽·墨菲 Mary Murphy
       Jameson Shade Jameson Shade
       Ralph Sanford Ralph Sanford
       Chalky Williams Chalky Williams
       哈利·坦布鲁克 Harry Tenbrook
       汤姆·塔利 Tom Tully
       雷·蒂尔 Ray Teal
       查尔兹·歇洛克 Charles Sherlock
       Franz Roehn Franz Roehn
       卡罗琳·琼斯 Carolyn Jones
       Jerry James Jerry James
       Soledad Jiménez Soledad Jiménez
       托尼·巴尔 Tony Barr
       彼得鲍德温 Peter Baldwin
       瑞秋埃姆斯 Rachel Ames
       Jay Adler Jay Adler
       怀特·毕塞尔 Whit Bissell
       丹尼·代顿 Danny Dayton
       罗素·约翰逊 Russell Johnson
       唐·波特 Don Porter
       埃德·贝格利 Ed Begley
       Hazel Boyne Hazel Boyne
       伦纳德·布雷门 Leonard Bremen
       山姆·哈里斯 Sam Harris
       Harry Hines Harry Hines
       格蕾斯·海尔 Grace Hayle
       霍华德·弗里曼 Howard Freeman
       特·德·科若 Ted de Corsia
       富兰克林·法纳姆 Franklyn Farnum
       Sayre Dearing Sayre Dearing
       拉斯·康威 Russ Conway
       Charles D. Campbell Charles D. Campbell
       内维尔·布兰德 Neville Brand
       Irving Asher Irving Asher
       利昂内尔·林敦 Lionel Lindon
       乔治·托马西尼 George Tomasini
       J·麦克米伦·约翰逊 J. McMillan Johnson
       萨姆·库默 Sam Comer
       格雷斯·格雷戈里 Grace Gregory
       哈尔·佩雷拉 Hal Pereira
       伊迪丝·海德 Edith Head
       沃利·韦斯特摩 Wally Westmore
       法乔特·埃多特 Farciot Edouart
       高登·詹宁斯 Gordon Jennings
  1. Video
  2. ID                                       : 1
  3. Format                                   : AVC
  4. Format/Info                              : Advanced Video Codec
  5. Format profile                           : [email protected]
  6. Format settings                          : CABAC / 5 Ref Frames
  7. Format settings, CABAC                   : Yes
  8. Format settings, Reference frames        : 5 frames
  9. Codec ID                                 : V_MPEG4/ISO/AVC
  10. Duration                                 : 1 h 25 min
  11. Bit rate                                 : 13.5 Mb/s
  12. Width                                    : 1 480 pixels
  13. Height                                   : 1 080 pixels
  14. Display aspect ratio                     : 1.370
  15. Frame rate mode                          : Constant
  16. Frame rate                               : 23.976 (24000/1001) FPS
  17. Color space                              : YUV
  18. Chroma subsampling                       : 4:2:0
  19. Bit depth                                : 8 bits
  20. Scan type                                : Progressive
  21. Bits/(Pixel*Frame)                       : 0.352
  22. Stream size                              : 8.05 GiB (96%)
  23. Writing library                          : x264 core 164 r3101 b093bbe
  24. Encoding settings                        : cabac=1 / ref=5 / deblock=1:-3:-3 / analyse=0x3:0x133 / me=umh / subme=10 / psy=1 / psy_rd=1.00:0.15 / mixed_ref=1 / me_range=24 / chroma_me=1 / trellis=2 / 8x8dct=1 / cqm=0 / deadzone=21,11 / fast_pskip=1 / chroma_qp_offset=-3 / threads=18 / lookahead_threads=3 / sliced_threads=0 / nr=0 / decimate=1 / interlaced=0 / bluray_compat=0 / constrained_intra=0 / bframes=8 / b_pyramid=2 / b_adapt=2 / b_bias=0 / direct=3 / weightb=1 / open_gop=0 / weightp=2 / keyint=250 / keyint_min=23 / scenecut=40 / intra_refresh=0 / rc_lookahead=60 / rc=crf / mbtree=1 / crf=17.0 / qcomp=0.60 / qpmin=0 / qpmax=69 / qpstep=4 / ip_ratio=1.40 / aq=3:0.50
  25. Language                                 : English
  26. Default                                  : Yes
  27. Forced                                   : No
  28. Audio #1
  29. ID                                       : 2
  30. Format                                   : FLAC
  31. Format/Info                              : Free Lossless Audio Codec
  32. Codec ID                                 : A_FLAC
  33. Duration                                 : 1 h 25 min
  34. Bit rate mode                            : Variable
  35. Bit rate                                 : 430 kb/s
  36. Channel(s)                               : 2 channels
  37. Channel layout                           : L R
  38. Sampling rate                            : 48.0 kHz
  39. Frame rate                               : 11.719 FPS (4096 SPF)
  40. Bit depth                                : 24 bits
  41. Detected bit depth                       : 18 bits
  42. Compression mode                         : Lossless
  43. Stream size                              : 263 MiB (3%)
  44. Writing library                          : libFLAC 1.2.1 (UTC 2007-09-17)
  45. Language                                 : English
  46. Default                                  : Yes
  47. Forced                                   : No
  48. Audio #2
  49. ID                                       : 3
  50. Format                                   : AAC LC
  51. Format/Info                              : Advanced Audio Codec Low Complexity
  52. Codec ID                                 : A_AAC-2
  53. Duration                                 : 1 h 25 min
  54. Bit rate                                 : 87.2 kb/s
  55. Channel(s)                               : 2 channels
  56. Channel layout                           : L R
  57. Sampling rate                            : 48.0 kHz
  58. Frame rate                               : 46.875 FPS (1024 SPF)
  59. Compression mode                         : Lossy
  60. Delay relative to video                  : 9 ms
  61. Stream size                              : 53.3 MiB (1%)
  62. Title                                    : English Commentary by Alan K. Rode
  63. Language                                 : English
  64. Default                                  : No
  65. Forced                                   : No
  66. Text #1
  67. ID                                       : 4
  68. Format                                   : UTF-8
  69. Codec ID                                 : S_TEXT/UTF8
  70. Codec ID/Info                            : UTF-8 Plain Text
  71. Duration                                 : 1 h 23 min
  72. Bit rate                                 : 77 b/s
  73. Count of elements                        : 1525
  74. Stream size                              : 47.4 KiB (0%)
  75. Title                                    : English
  76. Language                                 : English
  77. Default                                  : No
  78. Forced                                   : No
  79. Text #2
  80. ID                                       : 5
  81. Format                                   : UTF-8
  82. Codec ID                                 : S_TEXT/UTF8
  83. Codec ID/Info                            : UTF-8 Plain Text
  84. Duration                                 : 1 h 25 min
  85. Bit rate                                 : 78 b/s
  86. Count of elements                        : 1593
  87. Stream size                              : 49.1 KiB (0%)
  88. Title                                    : English SDH
  89. Language                                 : English
  90. Default                                  : No
  91. Forced                                   : No
  92. Text #3
  93. ID                                       : 6
  94. Format                                   : PGS
  95. Muxing mode                              : zlib
  96. Codec ID                                 : S_HDMV/PGS
  97. Codec ID/Info                            : Picture based subtitle format used on BDs/HD-DVDs
  98. Duration                                 : 1 h 25 min
  99. Bit rate                                 : 23.8 kb/s
  100. Count of elements                        : 2055
  101. Stream size                              : 14.5 MiB (0%)
  102. Title                                    : English SDH
  103. Language                                 : English
  104. Default                                  : No
  105. Forced                                   : No
  106. Menu
  107. 00:00:00.000                             : en:00:00:00.000
  108. 00:07:56.347                             : en:00:07:56.347
  109. 00:19:11.313                             : en:00:19:11.313
  110. 00:31:20.791                             : en:00:31:20.791
  111. 00:43:21.511                             : en:00:43:21.511
  112. 00:56:23.000                             : en:00:56:23.000
  113. 01:04:33.490                             : en:01:04:33.490
  114. 01:14:02.100                             : en:01:14:02.100
复制代码









回复

使用道具 举报

懒得打字嘛,点击右侧快捷回复 【右侧内容,后台自定义】
您需要登录后才可以回帖 登录 | 立即加入

本版积分规则

Archiver|小黑屋| 蓝光电影网 |网站地图

Copyright © 2021 Comsenz Inc. Powered by 蓝光电影网

蓝光电影网

本站内容由用户自主分享和转载自互联网,转载目的在于传递更多信息,并不代表本网赞同其观点和对其真实性负责。

如有侵权、违反国家法律政策行为,请联系我们,我们会第一时间及时清除和处理!

举报反馈邮箱:[email protected]

快速回复 返回顶部 返回列表