找回密码

蓝光电影网

查看: 70|回复: 0

[剧情] 金臂童[国语音轨].The.Kid.with.the.Golden.Arm.1979.Alternate.Cut.1080p.BluRay.x264-USURY 9.65GB

[复制链接]
蓝光币
1084
发表于 2023-1-10 16:11:13 | 显示全部楼层 |阅读模式


◎标  题 金臂童
◎译  名 The Kid with the Golden Arm
◎年  代 1979
◎产  地 中国香港
◎类  别 剧情 / 行动
◎语  言 汉语普通话
◎上映日期 1979-11-02
◎IMDb评分 7/10 (1595人评价)
◎IMDb链接 https://www.imdb.com/title/tt0079372/
◎豆瓣评分 6.9/10 (1068人评价)
◎豆瓣链接 https://movie.douban.com/subject/1307296/
◎片  长 86分钟
◎导  演 张彻 Cheh Chang
◎编  剧 张彻 Cheh Chang
◎演  员 孙建 Chien Sun
       罗莽 Meng Lo
       江生 Sheng Chiang
       鹿峰 Feng Lu
       余承平 Tai-ping Yu
       刘晃世 Huang-Hsi Liu
       孙树培 Shu-Pei Sun
       潘冰嫦 Bin Seung Poon
       韦白 Pai Wei
       陆剑明 Jamie Luk
       王龙威 Lung Wei Wang
       郭追 Philip Kwok
◎简  介
    虎威镖局总镖头杨虎云受官府之托,押运二十万两黄金赴黄河域账灾。但“七杀谷”中以金臂童为首一批武功高强的剧盗却窥视于此批灾银,扬言势必劫下此镖,为此,寒星剑李青冥、冷月剑冷凤、长斧殷九和短斧方十等武林好汉们纷纷前来助阵护镖。                                                                      群雄们前后撤除“七杀谷”中“水火七绝钩”及四谷主铜头客、三谷主铁衣生等高手,李青冥为敌方黑砂掌所伤,幸得有全国第一位捕之称的海涛所救始得幸免。运镖途中,殷九、方十及众多镖师不幸为“七杀谷”势力所害,但亦杀退“七杀谷”二谷主银枪子,杨虎云等终构成与金臂童间接对峙的场面。                                                                      李青冥为击败金臂童单独一人先行进步,却反到死于金臂童掌下。海涛等人随后赶到,与金臂童展开激斗,金臂童双目为海涛所伤,但就在此时海涛竟为杨虎云所袭。本来以一柄虎头刀著名全国的虎威镖局总镖头杨虎云,其实在成分乃是曾和金臂童齐名的铁脚童。
  1. Video
  2. ID                                       : 1
  3. Format                                   : AVC
  4. Format/Info                              : Advanced Video Codec
  5. Format profile                           : [email protected]
  6. Format settings                          : CABAC / 5 Ref Frames
  7. Format settings, CABAC                   : Yes
  8. Format settings, Reference frames        : 5 frames
  9. Codec ID                                 : V_MPEG4/ISO/AVC
  10. Duration                                 : 1 h 26 min
  11. Bit rate                                 : 14.6 Mb/s
  12. Width                                    : 1 920 pixels
  13. Height                                   : 818 pixels
  14. Display aspect ratio                     : 2.35:1
  15. Frame rate mode                          : Constant
  16. Frame rate                               : 23.976 (24000/1001) FPS
  17. Color space                              : YUV
  18. Chroma subsampling                       : 4:2:0
  19. Bit depth                                : 8 bits
  20. Scan type                                : Progressive
  21. Bits/(Pixel*Frame)                       : 0.387
  22. Stream size                              : 8.77 GiB (91%)
  23. Writing library                          : x264 core 164 r3101 b093bbe
  24. Encoding settings                        : cabac=1 / ref=5 / deblock=1:-3:-3 / analyse=0x3:0x133 / me=umh / subme=10 / psy=1 / psy_rd=1.00:0.15 / mixed_ref=1 / me_range=24 / chroma_me=1 / trellis=2 / 8x8dct=1 / cqm=0 / deadzone=21,11 / fast_pskip=1 / chroma_qp_offset=-3 / threads=18 / lookahead_threads=3 / sliced_threads=0 / nr=0 / decimate=1 / interlaced=0 / bluray_compat=0 / constrained_intra=0 / bframes=8 / b_pyramid=2 / b_adapt=2 / b_bias=0 / direct=3 / weightb=1 / open_gop=0 / weightp=2 / keyint=250 / keyint_min=23 / scenecut=40 / intra_refresh=0 / rc_lookahead=60 / rc=crf / mbtree=1 / crf=19.8 / qcomp=0.60 / qpmin=0 / qpmax=69 / qpstep=4 / ip_ratio=1.40 / aq=3:0.50
  25. Language                                 : English
  26. Default                                  : Yes
  27. Forced                                   : No
  28. Color range                              : Limited
  29. Matrix coefficients                      : BT.709
  30. Audio #1
  31. ID                                       : 2
  32. Format                                   : FLAC
  33. Format/Info                              : Free Lossless Audio Codec
  34. Codec ID                                 : A_FLAC
  35. Duration                                 : 1 h 26 min
  36. Bit rate mode                            : Variable
  37. Bit rate                                 : 634 kb/s
  38. Channel(s)                               : 1 channel
  39. Channel layout                           : C
  40. Sampling rate                            : 48.0 kHz
  41. Frame rate                               : 11.719 FPS (4096 SPF)
  42. Bit depth                                : 24 bits
  43. Compression mode                         : Lossless
  44. Stream size                              : 392 MiB (4%)
  45. Title                                    : Mandarin
  46. Writing library                          : libFLAC 1.2.1 (UTC 2007-09-17)
  47. Language                                 : Chinese
  48. Default                                  : Yes
  49. Forced                                   : No
  50. Audio #2
  51. ID                                       : 3
  52. Format                                   : FLAC
  53. Format/Info                              : Free Lossless Audio Codec
  54. Codec ID                                 : A_FLAC
  55. Duration                                 : 1 h 26 min
  56. Bit rate mode                            : Variable
  57. Bit rate                                 : 804 kb/s
  58. Channel(s)                               : 1 channel
  59. Channel layout                           : C
  60. Sampling rate                            : 48.0 kHz
  61. Frame rate                               : 11.719 FPS (4096 SPF)
  62. Bit depth                                : 24 bits
  63. Compression mode                         : Lossless
  64. Stream size                              : 496 MiB (5%)
  65. Title                                    : English
  66. Writing library                          : libFLAC 1.2.1 (UTC 2007-09-17)
  67. Language                                 : English
  68. Default                                  : No
  69. Forced                                   : No
  70. Text #1
  71. ID                                       : 4
  72. Format                                   : UTF-8
  73. Codec ID                                 : S_TEXT/UTF8
  74. Codec ID/Info                            : UTF-8 Plain Text
  75. Duration                                 : 1 h 25 min
  76. Bit rate                                 : 38 b/s
  77. Count of elements                        : 607
  78. Stream size                              : 24.2 KiB (0%)
  79. Title                                    : English
  80. Language                                 : English
  81. Default                                  : Yes
  82. Forced                                   : Yes
  83. Text #2
  84. ID                                       : 5
  85. Format                                   : PGS
  86. Muxing mode                              : zlib
  87. Codec ID                                 : S_HDMV/PGS
  88. Codec ID/Info                            : Picture based subtitle format used on BDs/HD-DVDs
  89. Duration                                 : 1 h 25 min
  90. Bit rate                                 : 6 043 b/s
  91. Count of elements                        : 1219
  92. Stream size                              : 3.72 MiB (0%)
  93. Title                                    : English
  94. Language                                 : English
  95. Default                                  : No
  96. Forced                                   : No
  97. Text #3
  98. ID                                       : 6
  99. Format                                   : UTF-8
  100. Codec ID                                 : S_TEXT/UTF8
  101. Codec ID/Info                            : UTF-8 Plain Text
  102. Duration                                 : 29 min 47 s
  103. Bit rate                                 : 2 b/s
  104. Count of elements                        : 23
  105. Stream size                              : 642 Bytes (0%)
  106. Title                                    : English forced
  107. Language                                 : English
  108. Default                                  : No
  109. Forced                                   : No
  110. Text #4
  111. ID                                       : 7
  112. Format                                   : PGS
  113. Muxing mode                              : zlib
  114. Codec ID                                 : S_HDMV/PGS
  115. Codec ID/Info                            : Picture based subtitle format used on BDs/HD-DVDs
  116. Duration                                 : 29 min 47 s
  117. Bit rate                                 : 524 b/s
  118. Count of elements                        : 62
  119. Stream size                              : 115 KiB (0%)
  120. Title                                    : English forced
  121. Language                                 : English
  122. Default                                  : No
  123. Forced                                   : No
  124. Text #5
  125. ID                                       : 8
  126. Format                                   : UTF-8
  127. Codec ID                                 : S_TEXT/UTF8
  128. Codec ID/Info                            : UTF-8 Plain Text
  129. Duration                                 : 1 h 25 min
  130. Bit rate                                 : 35 b/s
  131. Count of elements                        : 811
  132. Stream size                              : 22.6 KiB (0%)
  133. Title                                    : English dubtitles
  134. Language                                 : English
  135. Default                                  : No
  136. Forced                                   : No
  137. Text #6
  138. ID                                       : 9
  139. Format                                   : UTF-8
  140. Codec ID                                 : S_TEXT/UTF8
  141. Codec ID/Info                            : UTF-8 Plain Text
  142. Duration                                 : 1 h 25 min
  143. Bit rate                                 : 37 b/s
  144. Count of elements                        : 878
  145. Stream size                              : 23.9 KiB (0%)
  146. Title                                    : English dubtitles SDH
  147. Language                                 : English
  148. Default                                  : No
  149. Forced                                   : No
  150. Text #7
  151. ID                                       : 10
  152. Format                                   : PGS
  153. Muxing mode                              : zlib
  154. Codec ID                                 : S_HDMV/PGS
  155. Codec ID/Info                            : Picture based subtitle format used on BDs/HD-DVDs
  156. Duration                                 : 1 h 25 min
  157. Bit rate                                 : 6 917 b/s
  158. Count of elements                        : 1758
  159. Stream size                              : 4.25 MiB (0%)
  160. Title                                    : English dubtitles SDH
  161. Language                                 : English
  162. Default                                  : No
  163. Forced                                   : No
  164. Menu
  165. 00:00:00.000                             : en:00:00:00.000
  166. 00:09:58.765                             : en:00:09:58.765
  167. 00:16:10.970                             : en:00:16:10.970
  168. 00:21:17.776                             : en:00:21:17.776
  169. 00:29:51.289                             : en:00:29:51.289
  170. 00:36:34.859                             : en:00:36:34.859
  171. 00:44:35.756                             : en:00:44:35.756
  172. 00:51:42.141                             : en:00:51:42.141
  173. 00:55:32.996                             : en:00:55:32.996
  174. 01:05:04.025                             : en:01:05:04.025
  175. 01:09:46.516                             : en:01:09:46.516
  176. 01:20:13.016                             : en:01:20:13.016
复制代码









回复

使用道具 举报

懒得打字嘛,点击右侧快捷回复 【右侧内容,后台自定义】
您需要登录后才可以回帖 登录 | 立即加入

本版积分规则

Archiver|小黑屋| 蓝光电影网 |网站地图

Copyright © 2021 Comsenz Inc. Powered by 蓝光电影网

蓝光电影网

本站内容由用户自主分享和转载自互联网,转载目的在于传递更多信息,并不代表本网赞同其观点和对其真实性负责。

如有侵权、违反国家法律政策行为,请联系我们,我们会第一时间及时清除和处理!

举报反馈邮箱:[email protected]

快速回复 返回顶部 返回列表