找回密码

蓝光电影网

查看: 87|回复: 0

[动作] 魔翼杀手4.The.Prophecy.Uprising.2005.iNTERNAL.1080p.BluRay.x264-PEGASUS 6.38GB

[复制链接]
蓝光币
1082
发表于 2023-1-10 16:11:14 | 显示全部楼层 |阅读模式


◎标  题 魔翼杀手4
◎译  名 The Prophecy: Uprising
◎片  名 The Prophecy: Uprising
◎年  代 2005
◎产  地 美国
◎类  别 行动 / 惊悚 / 可骇 / 奇异
◎语  言 英语 / 罗马尼亚语
◎上映日期 2005-06-07
◎IMDb评分 5.2/10 (2362人评价)
◎IMDb链接 https://www.imdb.com/title/tt0365658/
◎豆瓣评分 6.8/10 (65人评价)
◎豆瓣链接 https://movie.douban.com/subject/1418004/
◎片  长 88分钟
◎导  演 乔尔·苏瓦松 Joel Soisson
◎编  剧 格雷戈里·威顿 Gregory Widen
       John Sullivan John Sullivan
       约翰·沙利文 John Sullivan
◎演  员 约翰·莱特 John Light
       西恩·帕特维 Sean Pertwee
       Lucian Iordache Lucian Iordache
       杰森·伦敦 Jason London
       卡瑞·伍尔 Kari Wuhrer
       道格·布拉德利 Doug Bradley
       史蒂芬·比灵顿 Stephen Billington
       Catalina Alexandru Catalina Alexandru
       Dicu Aurel Dicu Aurel
       Vasilescu Valentin Vasilescu Valentin
       乔治娜·赖兰斯 Georgina Rylance
       Nick Phillips Nick Phillips
◎标  签 宗教 / 悬疑 / 惊悚 / 奇异 / 美国 / 电影 / 美国电影 / 恶魔
◎简  介
    罗马尼亚的都城发生惨案,持续不断被害人的心脏被挖去,神父的奥秘圣经上显现出骇人的未来预言,以致惊吓致死。传闻的预言之书,可以肯定大概改变未来,成为魔鬼的方针。奥秘出现的黑衣约翰,究竟是天使还是魔鬼?这一切发生在红色社会主义政权垮台以后的罗马尼亚,和一个小侦察的密切相关……
  1. Video
  2. ID                                       : 1
  3. Format                                   : AVC
  4. Format/Info                              : Advanced Video Codec
  5. Format profile                           : [email protected]
  6. Format settings                          : CABAC / 4 Ref Frames
  7. Format settings, CABAC                   : Yes
  8. Format settings, Reference frames        : 4 frames
  9. Codec ID                                 : V_MPEG4/ISO/AVC
  10. Duration                                 : 1 h 27 min
  11. Bit rate                                 : 8 607 kb/s
  12. Width                                    : 1 920 pixels
  13. Height                                   : 1 080 pixels
  14. Display aspect ratio                     : 16:9
  15. Frame rate mode                          : Constant
  16. Frame rate                               : 23.976 (24000/1001) FPS
  17. Color space                              : YUV
  18. Chroma subsampling                       : 4:2:0
  19. Bit depth                                : 8 bits
  20. Scan type                                : Progressive
  21. Bits/(Pixel*Frame)                       : 0.173
  22. Stream size                              : 5.28 GiB (83%)
  23. Writing library                          : x264 core 164 r3103 941cae6
  24. Encoding settings                        : cabac=1 / ref=4 / deblock=1:-3:-3 / analyse=0x3:0x133 / me=umh / subme=11 / psy=1 / psy_rd=1.02:0.00 / mixed_ref=1 / me_range=32 / chroma_me=1 / trellis=2 / 8x8dct=1 / cqm=0 / deadzone=21,11 / fast_pskip=0 / chroma_qp_offset=-2 / threads=34 / lookahead_threads=8 / sliced_threads=0 / nr=0 / decimate=0 / interlaced=0 / bluray_compat=0 / constrained_intra=0 / bframes=16 / b_pyramid=2 / b_adapt=2 / b_bias=0 / direct=3 / weightb=1 / open_gop=0 / weightp=2 / keyint=250 / keyint_min=23 / scenecut=40 / intra_refresh=0 / rc_lookahead=250 / rc=crf / mbtree=0 / crf=22.9 / qcomp=0.60 / qpmin=0 / qpmax=69 / qpstep=4 / vbv_maxrate=62500 / vbv_bufsize=78125 / crf_max=0.0 / nal_hrd=none / filler=0 / ip_ratio=1.30 / pb_ratio=1.20 / aq=3:0.80
  25. Default                                  : Yes
  26. Forced                                   : No
  27. Color range                              : Limited
  28. Color primaries                          : BT.709
  29. Matrix coefficients                      : BT.709
  30. Audio
  31. ID                                       : 2
  32. Format                                   : DTS XLL
  33. Format/Info                              : Digital Theater Systems
  34. Commercial name                          : DTS-HD Master Audio
  35. Codec ID                                 : A_DTS
  36. Duration                                 : 1 h 27 min
  37. Bit rate mode                            : Variable
  38. Bit rate                                 : 1 787 kb/s
  39. Channel(s)                               : 6 channels
  40. Channel layout                           : C L R Ls Rs LFE
  41. Sampling rate                            : 48.0 kHz
  42. Frame rate                               : 93.750 FPS (512 SPF)
  43. Bit depth                                : 16 bits
  44. Compression mode                         : Lossless
  45. Stream size                              : 1.10 GiB (17%)
  46. Language                                 : English
  47. Default                                  : Yes
  48. Forced                                   : No
  49. Menu
  50. 00:00:00.000                             : :Chapter 01
  51. 00:05:47.347                             : :Chapter 02
  52. 00:09:25.523                             : :Chapter 03
  53. 00:12:53.773                             : :Chapter 04
  54. 00:18:31.110                             : :Chapter 05
  55. 00:28:17.696                             : :Chapter 06
  56. 00:33:02.981                             : :Chapter 07
  57. 00:40:48.446                             : :Chapter 08
  58. 00:45:08.706                             : :Chapter 09
  59. 00:52:09.126                             : :Chapter 10
  60. 00:59:11.548                             : :Chapter 11
  61. 01:04:13.850                             : :Chapter 12
  62. 01:08:14.090                             : :Chapter 13
  63. 01:14:21.457                             : :Chapter 14
  64. 01:19:54.790                             : :Chapter 15
复制代码









回复

使用道具 举报

懒得打字嘛,点击右侧快捷回复 【右侧内容,后台自定义】
您需要登录后才可以回帖 登录 | 立即加入

本版积分规则

Archiver|小黑屋| 蓝光电影网 |网站地图

Copyright © 2021 Comsenz Inc. Powered by 蓝光电影网

蓝光电影网

本站内容由用户自主分享和转载自互联网,转载目的在于传递更多信息,并不代表本网赞同其观点和对其真实性负责。

如有侵权、违反国家法律政策行为,请联系我们,我们会第一时间及时清除和处理!

举报反馈邮箱:[email protected]

快速回复 返回顶部 返回列表