找回密码

蓝光电影网

查看: 36|回复: 0

[动画] 短暂和平.Short.Peace.2013.1080p.BluRay.x264-HAiKU 7.29GB

[复制链接]
蓝光币
1082
发表于 2023-1-10 16:11:14 | 显示全部楼层 |阅读模式


◎标  题 长久战争
◎译  名 鬼‧火‧熊‧武(台) / 片刻安好 / ショート・ピース
◎片  名 SHORT PEACE
◎年  代 2013
◎产  地 日本
◎类  别 动画
◎语  言 日语
◎上映日期 2013-07-20(日本)
◎IMDb评分 6.8/10 (1676人评价)
◎IMDb链接 https://www.imdb.com/title/tt3392330/
◎豆瓣评分 8.1/10 (8800人评价)
◎豆瓣链接 https://movie.douban.com/subject/21619567/
◎片  长 68分钟
◎导  演 森本晃司 Kôji Morimoto
       森田修平 Shuhei Morita
       大友克洋 Katsuhiro Ôtomo
       角木肇 Katoki Sunao
       安藤裕章 Hiroaki Andô
◎编  剧 大友克洋 Katsuhiro Ôtomo
       森田修平 Shuhei Morita
       石井克人 Katsuhito Ishii
◎演  员 早见沙织 Saori Hayami
       森田成一 Masakazu Morita
       山寺宏一 Kôichi Yamadera
       悠木碧 Aoi Yuki
       草尾毅 Takeshi Kusao
       田村睦心 Mutsumi Tamura
       浪川大辅 Daisuke Namikawa
       二又一成 Issei Futamata
       大塚明夫 Akio Ôtsuka
       置鲇龙太郎 Ryôtarô Okiayu
       川原庆久 Yoshihisa Kawahara
       大友克洋 Katsuhiro Ôtomo
       春名风花 Fuuka Haruna
       山冈晃 Akira Yamaoka
       贞本义行 Yoshiyuki Sadamoto
       鹤冈阳太 Tsuruoka Youta
◎简  介
  本片由四个短片组成。《九十九》健硕的技术人在山中突逢暴雨,他仓皇间在一座祠堂歇脚,谁知里面别有洞天。被人用烂抛弃的雨伞和绸缎将他团团围住,技术人不为所惧,拿出随身照顾的针头线脑补缀这些布满悲怨的旧物。《火要镇》贩子之女若(早见沙织 配音)和邻家男孩年松吉(森田成一 配音)青梅竹马,两情相悦 。可是家境悬殊的二人毕竟有缘无分。行将出嫁的小若失慎引燃烛火,可在那一刻她却忽然停止灭火呼救的动机。                                    
                                《GAMBO》某座山村饱受庞大的赤鬼困扰,村民不能不将少女奉献进来以求苟存。村中最初一个女孩(田村睦心 配音)在森林里碰见可怕的白熊,她诉说了心中的苦处,而白熊却像听懂了一般杀向赤鬼的老巢。《别了兵器》一伙全部武装的战士来到早已成为废墟的都会,他们高度防备,尽力备战,只为围捕一辆无人驾驶的战车。
  1. Video
  2. ID                                       : 1
  3. Format                                   : AVC
  4. Format/Info                              : Advanced Video Codec
  5. Format profile                           : [email protected]
  6. Format settings                          : CABAC / 4 Ref Frames
  7. Format settings, CABAC                   : Yes
  8. Format settings, Reference frames        : 4 frames
  9. Codec ID                                 : V_MPEG4/ISO/AVC
  10. Duration                                 : 1 h 12 min
  11. Bit rate                                 : 9 674 kb/s
  12. Width                                    : 1 920 pixels
  13. Height                                   : 1 080 pixels
  14. Display aspect ratio                     : 16:9
  15. Frame rate mode                          : Constant
  16. Frame rate                               : 23.976 (24000/1001) FPS
  17. Color space                              : YUV
  18. Chroma subsampling                       : 4:2:0
  19. Bit depth                                : 8 bits
  20. Scan type                                : Progressive
  21. Bits/(Pixel*Frame)                       : 0.195
  22. Stream size                              : 4.92 GiB (68%)
  23. Writing library                          : x264 core 164 r3101 b093bbe
  24. Encoding settings                        : cabac=1 / ref=4 / deblock=1:1:1 / analyse=0x3:0x133 / me=umh / subme=10 / psy=1 / psy_rd=0.40:0.00 / mixed_ref=1 / me_range=24 / chroma_me=1 / trellis=2 / 8x8dct=1 / cqm=0 / deadzone=21,11 / fast_pskip=1 / chroma_qp_offset=-2 / threads=18 / lookahead_threads=4 / sliced_threads=0 / nr=0 / decimate=1 / interlaced=0 / bluray_compat=0 / constrained_intra=0 / bframes=10 / b_pyramid=2 / b_adapt=2 / b_bias=0 / direct=3 / weightb=1 / open_gop=0 / weightp=2 / keyint=250 / keyint_min=23 / scenecut=40 / intra_refresh=0 / rc_lookahead=60 / rc=crf / mbtree=1 / crf=17.0 / qcomp=0.60 / qpmin=0 / qpmax=69 / qpstep=4 / ip_ratio=1.40 / aq=3:1.10
  25. Language                                 : English
  26. Default                                  : Yes
  27. Forced                                   : No
  28. Audio #1
  29. ID                                       : 2
  30. Format                                   : DTS XLL
  31. Format/Info                              : Digital Theater Systems
  32. Commercial name                          : DTS-HD Master Audio
  33. Codec ID                                 : A_DTS
  34. Duration                                 : 1 h 8 min
  35. Bit rate mode                            : Variable
  36. Bit rate                                 : 2 422 kb/s
  37. Channel(s)                               : 6 channels
  38. Channel layout                           : C L R Ls Rs LFE
  39. Sampling rate                            : 48.0 kHz
  40. Frame rate                               : 93.750 FPS (512 SPF)
  41. Bit depth                                : 24 bits
  42. Compression mode                         : Lossless
  43. Stream size                              : 1.16 GiB (16%)
  44. Language                                 : Japanese
  45. Default                                  : Yes
  46. Forced                                   : No
  47. Audio #2
  48. ID                                       : 3
  49. Format                                   : DTS XLL
  50. Format/Info                              : Digital Theater Systems
  51. Commercial name                          : DTS-HD Master Audio
  52. Codec ID                                 : A_DTS
  53. Duration                                 : 1 h 8 min
  54. Bit rate mode                            : Variable
  55. Bit rate                                 : 2 482 kb/s
  56. Channel(s)                               : 6 channels
  57. Channel layout                           : C L R Ls Rs LFE
  58. Sampling rate                            : 48.0 kHz
  59. Frame rate                               : 93.750 FPS (512 SPF)
  60. Bit depth                                : 24 bits
  61. Compression mode                         : Lossless
  62. Stream size                              : 1.19 GiB (16%)
  63. Language                                 : English
  64. Default                                  : No
  65. Forced                                   : No
  66. Text #1
  67. ID                                       : 4
  68. Format                                   : UTF-8
  69. Codec ID                                 : S_TEXT/UTF8
  70. Codec ID/Info                            : UTF-8 Plain Text
  71. Duration                                 : 1 h 2 min
  72. Bit rate                                 : 28 b/s
  73. Count of elements                        : 473
  74. Stream size                              : 12.9 KiB (0%)
  75. Title                                    : English
  76. Language                                 : English
  77. Default                                  : Yes
  78. Forced                                   : Yes
  79. Text #2
  80. ID                                       : 5
  81. Format                                   : PGS
  82. Muxing mode                              : zlib
  83. Codec ID                                 : S_HDMV/PGS
  84. Codec ID/Info                            : Picture based subtitle format used on BDs/HD-DVDs
  85. Duration                                 : 1 h 2 min
  86. Bit rate                                 : 5 876 b/s
  87. Count of elements                        : 912
  88. Stream size                              : 2.62 MiB (0%)
  89. Title                                    : English
  90. Language                                 : English
  91. Default                                  : No
  92. Forced                                   : No
  93. Text #3
  94. ID                                       : 6
  95. Format                                   : UTF-8
  96. Codec ID                                 : S_TEXT/UTF8
  97. Codec ID/Info                            : UTF-8 Plain Text
  98. Duration                                 : 41 min 3 s
  99. Bit rate                                 : 1 b/s
  100. Count of elements                        : 6
  101. Stream size                              : 309 Bytes (0%)
  102. Title                                    : English forced
  103. Language                                 : English
  104. Default                                  : No
  105. Forced                                   : No
  106. Text #4
  107. ID                                       : 7
  108. Format                                   : PGS
  109. Muxing mode                              : zlib
  110. Codec ID                                 : S_HDMV/PGS
  111. Codec ID/Info                            : Picture based subtitle format used on BDs/HD-DVDs
  112. Duration                                 : 41 min 3 s
  113. Bit rate                                 : 345 b/s
  114. Count of elements                        : 12
  115. Stream size                              : 104 KiB (0%)
  116. Title                                    : English forced
  117. Language                                 : English
  118. Default                                  : No
  119. Forced                                   : No
  120. Menu
  121. 00:00:00.000                             : en:00:00:00.000
  122. 00:04:02.242                             : en:00:04:02.242
  123. 00:17:33.052                             : en:00:17:33.052
  124. 00:29:34.773                             : en:00:29:34.773
  125. 00:41:06.881                             : en:00:41:06.881
  126. 01:04:33.369                             : en:01:04:33.369
  127. 01:08:51.127                             : en:01:08:51.127
复制代码









回复

使用道具 举报

懒得打字嘛,点击右侧快捷回复 【右侧内容,后台自定义】
您需要登录后才可以回帖 登录 | 立即加入

本版积分规则

Archiver|小黑屋| 蓝光电影网 |网站地图

Copyright © 2021 Comsenz Inc. Powered by 蓝光电影网

蓝光电影网

本站内容由用户自主分享和转载自互联网,转载目的在于传递更多信息,并不代表本网赞同其观点和对其真实性负责。

如有侵权、违反国家法律政策行为,请联系我们,我们会第一时间及时清除和处理!

举报反馈邮箱:[email protected]

快速回复 返回顶部 返回列表