找回密码

蓝光电影网

查看: 18|回复: 0

[剧情] 世界将不同.Copilot.2021.GERMAN.1080p.HMAX.WEBRip.DDP5.1.x264-SPWEB 6.70GB

[复制链接]
蓝光币
1078
发表于 2023-1-10 16:11:53 | 显示全部楼层 |阅读模式


◎标  题 天下将分歧
◎译  名 副驾驶 / Die Frau des Piloten / Copilot
◎片  名 Die Welt wird eine andere sein
◎年  代 2021
◎产  地 德国
◎类  别 剧情
◎语  言 德语
◎上映日期 2021-03(柏林电影节)
◎IMDb评分 6.4/10 (286人评价)
◎IMDb链接 https://www.imdb.com/title/tt9178020/
◎豆瓣链接 https://movie.douban.com/subject/35320180/
◎片  长 118分钟
◎导  演 安娜•左拉•贝哈赫德 Anne Zohra Berrached
◎编  剧 安娜•左拉•贝哈赫德 Anne Zohra Berrached
◎演  员 罗格尔·阿扎 Roger Azar
◎简  介
    Asli marries Saeed in secret, even though her mother has something against Arabs and Saeed’s moods change like the weather. Then he disappears. The film tells the story of how Saeed changes Asli’s life – before the entire world is shaken.
  1. Video
  2. ID                                       : 1
  3. Format                                   : AVC
  4. Format/Info                              : Advanced Video Codec
  5. Format profile                           : [email protected]
  6. Format settings                          : CABAC / 4 Ref Frames
  7. Format settings, CABAC                   : Yes
  8. Format settings, Reference frames        : 4 frames
  9. Codec ID                                 : V_MPEG4/ISO/AVC
  10. Duration                                 : 1 h 53 min
  11. Bit rate mode                            : Variable
  12. Bit rate                                 : 8 250 kb/s
  13. Maximum bit rate                         : 12.4 Mb/s
  14. Width                                    : 1 920 pixels
  15. Height                                   : 1 080 pixels
  16. Display aspect ratio                     : 16:9
  17. Frame rate mode                          : Constant
  18. Frame rate                               : 25.000 FPS
  19. Color space                              : YUV
  20. Chroma subsampling                       : 4:2:0
  21. Bit depth                                : 8 bits
  22. Scan type                                : Progressive
  23. Bits/(Pixel*Frame)                       : 0.159
  24. Stream size                              : 6.49 GiB (97%)
  25. Writing library                          : x264 core 157 r2965 861cec4
  26. Encoding settings                        : cabac=1 / ref=4 / deblock=1:0:0 / analyse=0x3:0x113 / me=hex / subme=7 / psy=1 / psy_rd=1.00:0.00 / mixed_ref=1 / me_range=16 / chroma_me=1 / trellis=1 / 8x8dct=1 / cqm=0 / deadzone=21,11 / fast_pskip=1 / chroma_qp_offset=-2 / threads=34 / lookahead_threads=5 / sliced_threads=0 / nr=0 / decimate=1 / interlaced=0 / bluray_compat=0 / constrained_intra=0 / bframes=3 / b_pyramid=2 / b_adapt=1 / b_bias=0 / direct=1 / weightb=1 / open_gop=0 / weightp=2 / keyint=100 / keyint_min=100 / scenecut=40 / intra_refresh=0 / rc_lookahead=40 / rc=2pass / mbtree=1 / bitrate=8250 / ratetol=1.0 / qcomp=0.60 / qpmin=0 / qpmax=69 / qpstep=4 / cplxblur=20.0 / qblur=0.5 / vbv_maxrate=12375 / vbv_bufsize=6187 / nal_hrd=vbr / filler=0 / ip_ratio=1.40 / aq=1:1.00
  27. Language                                 : German
  28. Default                                  : Yes
  29. Forced                                   : No
  30. Color range                              : Limited
  31. Color primaries                          : BT.709
  32. Transfer characteristics                 : BT.709
  33. Matrix coefficients                      : BT.709
  34. Audio
  35. ID                                       : 2
  36. Format                                   : E-AC-3
  37. Format/Info                              : Enhanced AC-3
  38. Commercial name                          : Dolby Digital Plus
  39. Codec ID                                 : A_EAC3
  40. Duration                                 : 1 h 53 min
  41. Bit rate mode                            : Constant
  42. Bit rate                                 : 256 kb/s
  43. Channel(s)                               : 6 channels
  44. Channel layout                           : L R C LFE Ls Rs
  45. Sampling rate                            : 48.0 kHz
  46. Frame rate                               : 31.250 FPS (1536 SPF)
  47. Compression mode                         : Lossy
  48. Stream size                              : 209 MiB (3%)
  49. Language                                 : German
  50. Service kind                             : Complete Main
  51. Default                                  : Yes
  52. Forced                                   : No
  53. Text
  54. ID                                       : 3
  55. Format                                   : UTF-8
  56. Codec ID                                 : S_TEXT/UTF8
  57. Codec ID/Info                            : UTF-8 Plain Text
  58. Duration                                 : 1 h 48 min
  59. Bit rate                                 : 42 b/s
  60. Frame rate                               : 0.154 FPS
  61. Count of elements                        : 1005
  62. Stream size                              : 33.9 KiB (0%)
  63. Language                                 : English
  64. Default                                  : No
  65. Forced                                   : No
复制代码











回复

使用道具 举报

懒得打字嘛,点击右侧快捷回复 【右侧内容,后台自定义】
您需要登录后才可以回帖 登录 | 立即加入

本版积分规则

Archiver|小黑屋| 蓝光电影网 |网站地图

Copyright © 2021 Comsenz Inc. Powered by 蓝光电影网

蓝光电影网

本站内容由用户自主分享和转载自互联网,转载目的在于传递更多信息,并不代表本网赞同其观点和对其真实性负责。

如有侵权、违反国家法律政策行为,请联系我们,我们会第一时间及时清除和处理!

举报反馈邮箱:[email protected]

快速回复 返回顶部 返回列表