找回密码

蓝光电影网

查看: 19|回复: 0

[其他] 极速运转.Running.with.Speed.2023.1080p.AMZN.WEBRip.DDP2.0.x264-NOGRP 7.69GB

[复制链接]
蓝光币
1080
发表于 2023-1-10 16:11:54 | 显示全部楼层 |阅读模式


◎标  题 极速运转
◎译  名 Running with Speed: The Fastest Gamers on Earth
◎片  名 Running with Speed
◎年  代 2023
◎产  地 英国
◎类  别 记载片
◎语  言 英语
◎上映日期 2023-01-06(英国)
◎IMDb评分 6.4/10 (10人评价)
◎IMDb链接 https://www.imdb.com/title/tt23157244/
◎豆瓣链接 https://movie.douban.com/subject/36209692/
◎导  演 Patrick Lope Patrick Lope
       Nicholas Mross Nicholas Mross
◎编  剧 Patrick Lope Patrick Lope
       Nicholas Mross Nicholas Mross
◎简  介
    It tells the fascinating story of how the most dedicated and ingenious video game players in the world compete to set the fastest records of all time, and how they unite at @gamesdonequick to raise millions of dollars to fight cancer.
  1. Video
  2. ID                                       : 1
  3. Format                                   : AVC
  4. Format/Info                              : Advanced Video Codec
  5. Format profile                           : [email protected]
  6. Format settings                          : CABAC / 4 Ref Frames
  7. Format settings, CABAC                   : Yes
  8. Format settings, Reference frames        : 4 frames
  9. Codec ID                                 : V_MPEG4/ISO/AVC
  10. Duration                                 : 2 h 27 min
  11. Bit rate mode                            : Constant
  12. Bit rate                                 : 7 213 kb/s
  13. Nominal bit rate                         : 10 000 kb/s
  14. Width                                    : 1 920 pixels
  15. Height                                   : 1 040 pixels
  16. Display aspect ratio                     : 1.85:1
  17. Frame rate mode                          : Constant
  18. Frame rate                               : 23.976 (24000/1001) FPS
  19. Color space                              : YUV
  20. Chroma subsampling                       : 4:2:0
  21. Bit depth                                : 8 bits
  22. Scan type                                : Progressive
  23. Bits/(Pixel*Frame)                       : 0.151
  24. Stream size                              : 7.45 GiB (97%)
  25. Default                                  : Yes
  26. Forced                                   : No
  27. Color range                              : Limited
  28. Color primaries                          : BT.709
  29. Transfer characteristics                 : BT.709
  30. Matrix coefficients                      : BT.709
  31. Audio
  32. ID                                       : 2
  33. Format                                   : E-AC-3
  34. Format/Info                              : Enhanced AC-3
  35. Commercial name                          : Dolby Digital Plus
  36. Codec ID                                 : A_EAC3
  37. Duration                                 : 2 h 27 min
  38. Bit rate mode                            : Constant
  39. Bit rate                                 : 224 kb/s
  40. Channel(s)                               : 2 channels
  41. Channel layout                           : L R
  42. Sampling rate                            : 48.0 kHz
  43. Frame rate                               : 31.250 FPS (1536 SPF)
  44. Compression mode                         : Lossy
  45. Stream size                              : 237 MiB (3%)
  46. Title                                    : English
  47. Language                                 : English
  48. Service kind                             : Complete Main
  49. Default                                  : Yes
  50. Forced                                   : No
  51. Text
  52. ID                                       : 3
  53. Format                                   : UTF-8
  54. Codec ID                                 : S_TEXT/UTF8
  55. Codec ID/Info                            : UTF-8 Plain Text
  56. Duration                                 : 2 h 25 min
  57. Bit rate                                 : 105 b/s
  58. Frame rate                               : 0.312 FPS
  59. Count of elements                        : 2726
  60. Stream size                              : 113 KiB (0%)
  61. Title                                    : English [CC]
  62. Language                                 : English
  63. Default                                  : Yes
  64. Forced                                   : No
复制代码











回复

使用道具 举报

懒得打字嘛,点击右侧快捷回复 【右侧内容,后台自定义】
您需要登录后才可以回帖 登录 | 立即加入

本版积分规则

Archiver|小黑屋| 蓝光电影网 |网站地图

Copyright © 2021 Comsenz Inc. Powered by 蓝光电影网

蓝光电影网

本站内容由用户自主分享和转载自互联网,转载目的在于传递更多信息,并不代表本网赞同其观点和对其真实性负责。

如有侵权、违反国家法律政策行为,请联系我们,我们会第一时间及时清除和处理!

举报反馈邮箱:[email protected]

快速回复 返回顶部 返回列表