找回密码

蓝光电影网

查看: 23|回复: 0

[战争] 结局终将壮烈.The.End.Will.Be.Spectacular.2019.TURKISH.1080p.AMZN.WEBRip.DDP5.1.x264-PTerWEB 4.37GB

[复制链接]
蓝光币
1082
发表于 2023-1-10 16:11:55 | 显示全部楼层 |阅读模式


◎标  题 终局终将壮烈
◎译  名 Ji bo azadiyê
◎片  名 The End Will Be Spectacular
◎年  代 2019
◎产  地 印度
◎类  别 战争
◎语  言 印度语
◎上映日期 2019-11-11(印度)
◎IMDb评分 6.7/10 (311人评价)
◎IMDb链接 https://www.imdb.com/title/tt10688568/
◎豆瓣评分 6.5/10 (99人评价)
◎豆瓣链接 https://movie.douban.com/subject/34899621/
◎片  长 135分钟
◎导  演 埃尔辛·塞利克 Ersin Çelik
◎编  剧 埃尔辛·塞利克 Ersin Çelik
◎简  介
    报告一位叙利亚库尔德族少女为父报仇,加入到匹敌极端份子和土耳其的战争中。
  1. Video
  2. ID                                       : 1
  3. Format                                   : AVC
  4. Format/Info                              : Advanced Video Codec
  5. Format profile                           : [email protected]
  6. Format settings                          : CABAC / 4 Ref Frames
  7. Format settings, CABAC                   : Yes
  8. Format settings, Reference frames        : 4 frames
  9. Codec ID                                 : V_MPEG4/ISO/AVC
  10. Duration                                 : 2 h 22 min
  11. Bit rate                                 : 3 749 kb/s
  12. Width                                    : 1 920 pixels
  13. Height                                   : 800 pixels
  14. Display aspect ratio                     : 2.40:1
  15. Frame rate mode                          : Constant
  16. Frame rate                               : 25.000 FPS
  17. Color space                              : YUV
  18. Chroma subsampling                       : 4:2:0
  19. Bit depth                                : 8 bits
  20. Scan type                                : Progressive
  21. Bits/(Pixel*Frame)                       : 0.098
  22. Stream size                              : 3.73 GiB (85%)
  23. Default                                  : Yes
  24. Forced                                   : No
  25. Color range                              : Limited
  26. Color primaries                          : BT.709
  27. Transfer characteristics                 : BT.709
  28. Matrix coefficients                      : BT.709
  29. Audio
  30. ID                                       : 2
  31. Format                                   : E-AC-3
  32. Format/Info                              : Enhanced AC-3
  33. Commercial name                          : Dolby Digital Plus
  34. Codec ID                                 : A_EAC3
  35. Duration                                 : 2 h 22 min
  36. Bit rate mode                            : Constant
  37. Bit rate                                 : 640 kb/s
  38. Channel(s)                               : 6 channels
  39. Channel layout                           : L R C LFE Ls Rs
  40. Sampling rate                            : 48.0 kHz
  41. Frame rate                               : 31.250 FPS (1536 SPF)
  42. Compression mode                         : Lossy
  43. Stream size                              : 652 MiB (15%)
  44. Language                                 : Turkish
  45. Service kind                             : Complete Main
  46. Default                                  : Yes
  47. Forced                                   : No
  48. Text #1
  49. ID                                       : 3
  50. Format                                   : UTF-8
  51. Codec ID                                 : S_TEXT/UTF8
  52. Codec ID/Info                            : UTF-8 Plain Text
  53. Duration                                 : 2 h 22 min
  54. Bit rate                                 : 39 b/s
  55. Frame rate                               : 0.118 FPS
  56. Count of elements                        : 1005
  57. Stream size                              : 41.5 KiB (0%)
  58. Language                                 : German
  59. Default                                  : No
  60. Forced                                   : No
  61. Text #2
  62. ID                                       : 4
  63. Format                                   : UTF-8
  64. Codec ID                                 : S_TEXT/UTF8
  65. Codec ID/Info                            : UTF-8 Plain Text
  66. Duration                                 : 2 h 22 min
  67. Bit rate                                 : 37 b/s
  68. Frame rate                               : 0.118 FPS
  69. Count of elements                        : 1002
  70. Stream size                              : 39.5 KiB (0%)
  71. Language                                 : English
  72. Default                                  : No
  73. Forced                                   : No
复制代码











回复

使用道具 举报

懒得打字嘛,点击右侧快捷回复 【右侧内容,后台自定义】
您需要登录后才可以回帖 登录 | 立即加入

本版积分规则

Archiver|小黑屋| 蓝光电影网 |网站地图

Copyright © 2021 Comsenz Inc. Powered by 蓝光电影网

蓝光电影网

本站内容由用户自主分享和转载自互联网,转载目的在于传递更多信息,并不代表本网赞同其观点和对其真实性负责。

如有侵权、违反国家法律政策行为,请联系我们,我们会第一时间及时清除和处理!

举报反馈邮箱:[email protected]

快速回复 返回顶部 返回列表