找回密码

蓝光电影网

查看: 18|回复: 0

[喜剧] 查理·布朗恋爱了[中文字幕].Youre.in.Love.Charlie.Brown.1967.1080p.WEBRip.DD5.1.x264-NOGRP 1.81GB

[复制链接]
蓝光币
1084
发表于 2023-1-10 16:11:55 | 显示全部楼层 |阅读模式


◎标  题 查理·布朗恋爱了
◎片  名 You're in Love, Charlie Brown
◎年  代 1967
◎产  地 美国
◎类  别 笑剧 / 恋爱 / 动画 / 短片 / 家庭
◎语  言 英语
◎IMDb评分 7.6/10 (1425人评价)
◎IMDb链接 https://www.imdb.com/title/tt0062513/
◎豆瓣链接 https://movie.douban.com/subject/4944038/
◎导  演 比尔·莫伦茨 Bill Melendez
◎编  剧 查尔斯·M·舒尔茨 Charles M. Schulz
◎演  员 Christopher Shea Christopher Shea
       Sally Dryer Sally Dryer
       彼得·罗宾斯 Peter Robbins
       比尔·莫伦茨 Bill Melendez
  1. Video
  2. ID                                       : 1
  3. Format                                   : AVC
  4. Format/Info                              : Advanced Video Codec
  5. Format profile                           : [email protected]
  6. Format settings                          : CABAC / 5 Ref Frames
  7. Format settings, CABAC                   : Yes
  8. Format settings, Reference frames        : 5 frames
  9. Codec ID                                 : V_MPEG4/ISO/AVC
  10. Duration                                 : 25 min 18 s
  11. Bit rate                                 : 9 822 kb/s
  12. Width                                    : 1 440 pixels
  13. Height                                   : 1 080 pixels
  14. Display aspect ratio                     : 4:3
  15. Frame rate mode                          : Constant
  16. Frame rate                               : 23.976 (24000/1001) FPS
  17. Color space                              : YUV
  18. Chroma subsampling                       : 4:2:0
  19. Bit depth                                : 8 bits
  20. Scan type                                : Progressive
  21. Bits/(Pixel*Frame)                       : 0.263
  22. Stream size                              : 1.74 GiB (96%)
  23. Default                                  : Yes
  24. Forced                                   : No
  25. Color range                              : Limited
  26. Color primaries                          : BT.709
  27. Transfer characteristics                 : BT.709
  28. Matrix coefficients                      : BT.709
  29. Audio
  30. ID                                       : 2
  31. Format                                   : AC-3
  32. Format/Info                              : Audio Coding 3
  33. Commercial name                          : Dolby Digital
  34. Codec ID                                 : A_AC3
  35. Duration                                 : 25 min 18 s
  36. Bit rate mode                            : Constant
  37. Bit rate                                 : 384 kb/s
  38. Channel(s)                               : 6 channels
  39. Channel layout                           : L R C LFE Ls Rs
  40. Sampling rate                            : 48.0 kHz
  41. Frame rate                               : 31.250 FPS (1536 SPF)
  42. Compression mode                         : Lossy
  43. Stream size                              : 69.5 MiB (4%)
  44. Title                                    : Surround Upmix (WEB)
  45. Language                                 : English
  46. Service kind                             : Complete Main
  47. Default                                  : No
  48. Forced                                   : No
  49. Text #1
  50. ID                                       : 3
  51. Format                                   : UTF-8
  52. Codec ID                                 : S_TEXT/UTF8
  53. Codec ID/Info                            : UTF-8 Plain Text
  54. Duration                                 : 24 min 32 s
  55. Bit rate                                 : 69 b/s
  56. Frame rate                               : 0.235 FPS
  57. Count of elements                        : 346
  58. Stream size                              : 12.5 KiB (0%)
  59. Language                                 : English
  60. Default                                  : Yes
  61. Forced                                   : No
  62. Text #2
  63. ID                                       : 4
  64. Format                                   : UTF-8
  65. Codec ID                                 : S_TEXT/UTF8
  66. Codec ID/Info                            : UTF-8 Plain Text
  67. Duration                                 : 24 min 56 s
  68. Bit rate                                 : 75 b/s
  69. Frame rate                               : 0.271 FPS
  70. Count of elements                        : 405
  71. Stream size                              : 13.8 KiB (0%)
  72. Title                                    : SDH
  73. Language                                 : English
  74. Default                                  : No
  75. Forced                                   : No
  76. Text #3
  77. ID                                       : 5
  78. Format                                   : UTF-8
  79. Codec ID                                 : S_TEXT/UTF8
  80. Codec ID/Info                            : UTF-8 Plain Text
  81. Duration                                 : 24 min 53 s
  82. Bit rate                                 : 95 b/s
  83. Frame rate                               : 0.237 FPS
  84. Count of elements                        : 354
  85. Stream size                              : 17.5 KiB (0%)
  86. Language                                 : Arabic
  87. Default                                  : No
  88. Forced                                   : No
  89. Text #4
  90. ID                                       : 6
  91. Format                                   : UTF-8
  92. Codec ID                                 : S_TEXT/UTF8
  93. Codec ID/Info                            : UTF-8 Plain Text
  94. Duration                                 : 24 min 53 s
  95. Bit rate                                 : 105 b/s
  96. Frame rate                               : 0.229 FPS
  97. Count of elements                        : 342
  98. Stream size                              : 19.2 KiB (0%)
  99. Language                                 : Bulgarian
  100. Default                                  : No
  101. Forced                                   : No
  102. Text #5
  103. ID                                       : 7
  104. Format                                   : UTF-8
  105. Codec ID                                 : S_TEXT/UTF8
  106. Codec ID/Info                            : UTF-8 Plain Text
  107. Duration                                 : 24 min 53 s
  108. Bit rate                                 : 58 b/s
  109. Frame rate                               : 0.237 FPS
  110. Count of elements                        : 354
  111. Stream size                              : 10.6 KiB (0%)
  112. Title                                    : Mandarin Chinese (Simplified)
  113. Language                                 : Chinese (Simplied)
  114. Default                                  : No
  115. Forced                                   : No
  116. Text #6
  117. ID                                       : 8
  118. Format                                   : UTF-8
  119. Codec ID                                 : S_TEXT/UTF8
  120. Codec ID/Info                            : UTF-8 Plain Text
  121. Duration                                 : 24 min 53 s
  122. Bit rate                                 : 58 b/s
  123. Frame rate                               : 0.238 FPS
  124. Count of elements                        : 355
  125. Stream size                              : 10.7 KiB (0%)
  126. Title                                    : Mandarin Chinese (Traditional)
  127. Language                                 : Chinese (Traditional)
  128. Default                                  : No
  129. Forced                                   : No
  130. Text #7
  131. ID                                       : 9
  132. Format                                   : UTF-8
  133. Codec ID                                 : S_TEXT/UTF8
  134. Codec ID/Info                            : UTF-8 Plain Text
  135. Duration                                 : 24 min 53 s
  136. Bit rate                                 : 67 b/s
  137. Frame rate                               : 0.222 FPS
  138. Count of elements                        : 332
  139. Stream size                              : 12.3 KiB (0%)
  140. Language                                 : Czech
  141. Default                                  : No
  142. Forced                                   : No
  143. Text #8
  144. ID                                       : 10
  145. Format                                   : UTF-8
  146. Codec ID                                 : S_TEXT/UTF8
  147. Codec ID/Info                            : UTF-8 Plain Text
  148. Duration                                 : 24 min 53 s
  149. Bit rate                                 : 68 b/s
  150. Frame rate                               : 0.193 FPS
  151. Count of elements                        : 289
  152. Stream size                              : 12.6 KiB (0%)
  153. Language                                 : Danish
  154. Default                                  : No
  155. Forced                                   : No
  156. Text #9
  157. ID                                       : 11
  158. Format                                   : UTF-8
  159. Codec ID                                 : S_TEXT/UTF8
  160. Codec ID/Info                            : UTF-8 Plain Text
  161. Duration                                 : 24 min 53 s
  162. Bit rate                                 : 79 b/s
  163. Frame rate                               : 0.226 FPS
  164. Count of elements                        : 338
  165. Stream size                              : 14.4 KiB (0%)
  166. Language                                 : German
  167. Default                                  : No
  168. Forced                                   : No
  169. Text #10
  170. ID                                       : 12
  171. Format                                   : UTF-8
  172. Codec ID                                 : S_TEXT/UTF8
  173. Codec ID/Info                            : UTF-8 Plain Text
  174. Duration                                 : 24 min 53 s
  175. Bit rate                                 : 105 b/s
  176. Frame rate                               : 0.231 FPS
  177. Count of elements                        : 345
  178. Stream size                              : 19.2 KiB (0%)
  179. Language                                 : Greek
  180. Default                                  : No
  181. Forced                                   : No
  182. Text #11
  183. ID                                       : 13
  184. Format                                   : UTF-8
  185. Codec ID                                 : S_TEXT/UTF8
  186. Codec ID/Info                            : UTF-8 Plain Text
  187. Duration                                 : 24 min 53 s
  188. Bit rate                                 : 70 b/s
  189. Frame rate                               : 0.236 FPS
  190. Count of elements                        : 352
  191. Stream size                              : 12.9 KiB (0%)
  192. Title                                    : Spanish (Latin America)
  193. Language                                 : Spanish (Latin America)
  194. Default                                  : No
  195. Forced                                   : No
  196. Text #12
  197. ID                                       : 14
  198. Format                                   : UTF-8
  199. Codec ID                                 : S_TEXT/UTF8
  200. Codec ID/Info                            : UTF-8 Plain Text
  201. Duration                                 : 24 min 53 s
  202. Bit rate                                 : 68 b/s
  203. Frame rate                               : 0.237 FPS
  204. Count of elements                        : 354
  205. Stream size                              : 12.5 KiB (0%)
  206. Title                                    : Spanish (Spain)
  207. Language                                 : Spanish (ES)
  208. Default                                  : No
  209. Forced                                   : No
  210. Text #13
  211. ID                                       : 15
  212. Format                                   : UTF-8
  213. Codec ID                                 : S_TEXT/UTF8
  214. Codec ID/Info                            : UTF-8 Plain Text
  215. Duration                                 : 24 min 53 s
  216. Bit rate                                 : 64 b/s
  217. Frame rate                               : 0.222 FPS
  218. Count of elements                        : 331
  219. Stream size                              : 11.7 KiB (0%)
  220. Language                                 : Estonian
  221. Default                                  : No
  222. Forced                                   : No
  223. Text #14
  224. ID                                       : 16
  225. Format                                   : UTF-8
  226. Codec ID                                 : S_TEXT/UTF8
  227. Codec ID/Info                            : UTF-8 Plain Text
  228. Duration                                 : 24 min 53 s
  229. Bit rate                                 : 67 b/s
  230. Frame rate                               : 0.230 FPS
  231. Count of elements                        : 343
  232. Stream size                              : 12.4 KiB (0%)
  233. Language                                 : Finnish
  234. Default                                  : No
  235. Forced                                   : No
  236. Text #15
  237. ID                                       : 17
  238. Format                                   : UTF-8
  239. Codec ID                                 : S_TEXT/UTF8
  240. Codec ID/Info                            : UTF-8 Plain Text
  241. Duration                                 : 24 min 53 s
  242. Bit rate                                 : 66 b/s
  243. Frame rate                               : 0.236 FPS
  244. Count of elements                        : 353
  245. Stream size                              : 12.1 KiB (0%)
  246. Title                                    : French (Canada)
  247. Language                                 : French (CA)
  248. Default                                  : No
  249. Forced                                   : No
  250. Text #16
  251. ID                                       : 18
  252. Format                                   : UTF-8
  253. Codec ID                                 : S_TEXT/UTF8
  254. Codec ID/Info                            : UTF-8 Plain Text
  255. Duration                                 : 24 min 53 s
  256. Bit rate                                 : 66 b/s
  257. Frame rate                               : 0.236 FPS
  258. Count of elements                        : 353
  259. Stream size                              : 12.1 KiB (0%)
  260. Title                                    : French (France)
  261. Language                                 : French (FR)
  262. Default                                  : No
  263. Forced                                   : No
  264. Text #17
  265. ID                                       : 19
  266. Format                                   : UTF-8
  267. Codec ID                                 : S_TEXT/UTF8
  268. Codec ID/Info                            : UTF-8 Plain Text
  269. Duration                                 : 24 min 53 s
  270. Bit rate                                 : 90 b/s
  271. Frame rate                               : 0.238 FPS
  272. Count of elements                        : 355
  273. Stream size                              : 16.5 KiB (0%)
  274. Language                                 : Hebrew
  275. Default                                  : No
  276. Forced                                   : No
  277. Text #18
  278. ID                                       : 20
  279. Format                                   : UTF-8
  280. Codec ID                                 : S_TEXT/UTF8
  281. Codec ID/Info                            : UTF-8 Plain Text
  282. Duration                                 : 24 min 53 s
  283. Bit rate                                 : 187 b/s
  284. Frame rate                               : 0.238 FPS
  285. Count of elements                        : 356
  286. Stream size                              : 34.2 KiB (0%)
  287. Language                                 : Hindi
  288. Default                                  : No
  289. Forced                                   : No
  290. Text #19
  291. ID                                       : 21
  292. Format                                   : UTF-8
  293. Codec ID                                 : S_TEXT/UTF8
  294. Codec ID/Info                            : UTF-8 Plain Text
  295. Duration                                 : 24 min 53 s
  296. Bit rate                                 : 70 b/s
  297. Frame rate                               : 0.236 FPS
  298. Count of elements                        : 352
  299. Stream size                              : 12.8 KiB (0%)
  300. Language                                 : Hungarian
  301. Default                                  : No
  302. Forced                                   : No
  303. Text #20
  304. ID                                       : 22
  305. Format                                   : UTF-8
  306. Codec ID                                 : S_TEXT/UTF8
  307. Codec ID/Info                            : UTF-8 Plain Text
  308. Duration                                 : 24 min 53 s
  309. Bit rate                                 : 67 b/s
  310. Frame rate                               : 0.238 FPS
  311. Count of elements                        : 355
  312. Stream size                              : 12.3 KiB (0%)
  313. Language                                 : Indonesian
  314. Default                                  : No
  315. Forced                                   : No
  316. Text #21
  317. ID                                       : 23
  318. Format                                   : UTF-8
  319. Codec ID                                 : S_TEXT/UTF8
  320. Codec ID/Info                            : UTF-8 Plain Text
  321. Duration                                 : 24 min 53 s
  322. Bit rate                                 : 69 b/s
  323. Frame rate                               : 0.235 FPS
  324. Count of elements                        : 351
  325. Stream size                              : 12.6 KiB (0%)
  326. Language                                 : Italian
  327. Default                                  : No
  328. Forced                                   : No
  329. Text #22
  330. ID                                       : 24
  331. Format                                   : UTF-8
  332. Codec ID                                 : S_TEXT/UTF8
  333. Codec ID/Info                            : UTF-8 Plain Text
  334. Duration                                 : 24 min 50 s
  335. Bit rate                                 : 65 b/s
  336. Frame rate                               : 0.219 FPS
  337. Count of elements                        : 326
  338. Stream size                              : 11.9 KiB (0%)
  339. Language                                 : Japanese
  340. Default                                  : No
  341. Forced                                   : No
  342. Text #23
  343. ID                                       : 25
  344. Format                                   : UTF-8
  345. Codec ID                                 : S_TEXT/UTF8
  346. Codec ID/Info                            : UTF-8 Plain Text
  347. Duration                                 : 24 min 53 s
  348. Bit rate                                 : 71 b/s
  349. Frame rate                               : 0.238 FPS
  350. Count of elements                        : 355
  351. Stream size                              : 13.0 KiB (0%)
  352. Language                                 : Korean
  353. Default                                  : No
  354. Forced                                   : No
  355. Text #24
  356. ID                                       : 26
  357. Format                                   : UTF-8
  358. Codec ID                                 : S_TEXT/UTF8
  359. Codec ID/Info                            : UTF-8 Plain Text
  360. Duration                                 : 24 min 53 s
  361. Bit rate                                 : 61 b/s
  362. Frame rate                               : 0.236 FPS
  363. Count of elements                        : 352
  364. Stream size                              : 11.2 KiB (0%)
  365. Language                                 : Lithuanian
  366. Default                                  : No
  367. Forced                                   : No
  368. Text #25
  369. ID                                       : 27
  370. Format                                   : UTF-8
  371. Codec ID                                 : S_TEXT/UTF8
  372. Codec ID/Info                            : UTF-8 Plain Text
  373. Duration                                 : 24 min 53 s
  374. Bit rate                                 : 70 b/s
  375. Frame rate                               : 0.236 FPS
  376. Count of elements                        : 352
  377. Stream size                              : 12.9 KiB (0%)
  378. Language                                 : Latvian
  379. Default                                  : No
  380. Forced                                   : No
  381. Text #26
  382. ID                                       : 28
  383. Format                                   : UTF-8
  384. Codec ID                                 : S_TEXT/UTF8
  385. Codec ID/Info                            : UTF-8 Plain Text
  386. Duration                                 : 24 min 53 s
  387. Bit rate                                 : 71 b/s
  388. Frame rate                               : 0.236 FPS
  389. Count of elements                        : 352
  390. Stream size                              : 13.0 KiB (0%)
  391. Language                                 : Malay
  392. Default                                  : No
  393. Forced                                   : No
  394. Text #27
  395. ID                                       : 29
  396. Format                                   : UTF-8
  397. Codec ID                                 : S_TEXT/UTF8
  398. Codec ID/Info                            : UTF-8 Plain Text
  399. Duration                                 : 24 min 53 s
  400. Bit rate                                 : 66 b/s
  401. Frame rate                               : 0.188 FPS
  402. Count of elements                        : 281
  403. Stream size                              : 12.1 KiB (0%)
  404. Title                                    : Dutch
  405. Language                                 : Dutch
  406. Default                                  : No
  407. Forced                                   : No
  408. Text #28
  409. ID                                       : 30
  410. Format                                   : UTF-8
  411. Codec ID                                 : S_TEXT/UTF8
  412. Codec ID/Info                            : UTF-8 Plain Text
  413. Duration                                 : 24 min 53 s
  414. Bit rate                                 : 68 b/s
  415. Frame rate                               : 0.215 FPS
  416. Count of elements                        : 321
  417. Stream size                              : 12.5 KiB (0%)
  418. Title                                    : Dutch (Belgium)
  419. Language                                 : Dutch (BE)
  420. Default                                  : No
  421. Forced                                   : No
  422. Text #29
  423. ID                                       : 31
  424. Format                                   : UTF-8
  425. Codec ID                                 : S_TEXT/UTF8
  426. Codec ID/Info                            : UTF-8 Plain Text
  427. Duration                                 : 24 min 53 s
  428. Bit rate                                 : 68 b/s
  429. Frame rate                               : 0.208 FPS
  430. Count of elements                        : 310
  431. Stream size                              : 12.5 KiB (0%)
  432. Language                                 : Norwegian
  433. Default                                  : No
  434. Forced                                   : No
  435. Text #30
  436. ID                                       : 32
  437. Format                                   : UTF-8
  438. Codec ID                                 : S_TEXT/UTF8
  439. Codec ID/Info                            : UTF-8 Plain Text
  440. Duration                                 : 24 min 53 s
  441. Bit rate                                 : 67 b/s
  442. Frame rate                               : 0.238 FPS
  443. Count of elements                        : 355
  444. Stream size                              : 12.4 KiB (0%)
  445. Language                                 : Polish
  446. Default                                  : No
  447. Forced                                   : No
  448. Text #31
  449. ID                                       : 33
  450. Format                                   : UTF-8
  451. Codec ID                                 : S_TEXT/UTF8
  452. Codec ID/Info                            : UTF-8 Plain Text
  453. Duration                                 : 24 min 53 s
  454. Bit rate                                 : 66 b/s
  455. Frame rate                               : 0.237 FPS
  456. Count of elements                        : 354
  457. Stream size                              : 12.2 KiB (0%)
  458. Title                                    : Portuguese
  459. Language                                 : Portuguese
  460. Default                                  : No
  461. Forced                                   : No
  462. Text #32
  463. ID                                       : 34
  464. Format                                   : UTF-8
  465. Codec ID                                 : S_TEXT/UTF8
  466. Codec ID/Info                            : UTF-8 Plain Text
  467. Duration                                 : 24 min 53 s
  468. Bit rate                                 : 68 b/s
  469. Frame rate                               : 0.234 FPS
  470. Count of elements                        : 350
  471. Stream size                              : 12.5 KiB (0%)
  472. Title                                    : Portuguese (Brazil)
  473. Language                                 : Portuguese (BR)
  474. Default                                  : No
  475. Forced                                   : No
  476. Text #33
  477. ID                                       : 35
  478. Format                                   : UTF-8
  479. Codec ID                                 : S_TEXT/UTF8
  480. Codec ID/Info                            : UTF-8 Plain Text
  481. Duration                                 : 24 min 53 s
  482. Bit rate                                 : 116 b/s
  483. Frame rate                               : 0.238 FPS
  484. Count of elements                        : 356
  485. Stream size                              : 21.3 KiB (0%)
  486. Language                                 : Russian
  487. Default                                  : No
  488. Forced                                   : No
  489. Text #34
  490. ID                                       : 36
  491. Format                                   : UTF-8
  492. Codec ID                                 : S_TEXT/UTF8
  493. Codec ID/Info                            : UTF-8 Plain Text
  494. Duration                                 : 24 min 53 s
  495. Bit rate                                 : 62 b/s
  496. Frame rate                               : 0.233 FPS
  497. Count of elements                        : 348
  498. Stream size                              : 11.4 KiB (0%)
  499. Language                                 : Slovak
  500. Default                                  : No
  501. Forced                                   : No
  502. Text #35
  503. ID                                       : 37
  504. Format                                   : UTF-8
  505. Codec ID                                 : S_TEXT/UTF8
  506. Codec ID/Info                            : UTF-8 Plain Text
  507. Duration                                 : 24 min 53 s
  508. Bit rate                                 : 58 b/s
  509. Frame rate                               : 0.228 FPS
  510. Count of elements                        : 340
  511. Stream size                              : 10.7 KiB (0%)
  512. Language                                 : Slovenian
  513. Default                                  : No
  514. Forced                                   : No
  515. Text #36
  516. ID                                       : 38
  517. Format                                   : UTF-8
  518. Codec ID                                 : S_TEXT/UTF8
  519. Codec ID/Info                            : UTF-8 Plain Text
  520. Duration                                 : 24 min 53 s
  521. Bit rate                                 : 71 b/s
  522. Frame rate                               : 0.232 FPS
  523. Count of elements                        : 347
  524. Stream size                              : 13.0 KiB (0%)
  525. Language                                 : Swedish
  526. Default                                  : No
  527. Forced                                   : No
  528. Text #37
  529. ID                                       : 39
  530. Format                                   : UTF-8
  531. Codec ID                                 : S_TEXT/UTF8
  532. Codec ID/Info                            : UTF-8 Plain Text
  533. Duration                                 : 24 min 53 s
  534. Bit rate                                 : 210 b/s
  535. Frame rate                               : 0.238 FPS
  536. Count of elements                        : 355
  537. Stream size                              : 38.4 KiB (0%)
  538. Language                                 : Tamil
  539. Default                                  : No
  540. Forced                                   : No
  541. Text #38
  542. ID                                       : 40
  543. Format                                   : UTF-8
  544. Codec ID                                 : S_TEXT/UTF8
  545. Codec ID/Info                            : UTF-8 Plain Text
  546. Duration                                 : 24 min 53 s
  547. Bit rate                                 : 208 b/s
  548. Frame rate                               : 0.238 FPS
  549. Count of elements                        : 355
  550. Stream size                              : 38.0 KiB (0%)
  551. Language                                 : Telugu
  552. Default                                  : No
  553. Forced                                   : No
  554. Text #39
  555. ID                                       : 41
  556. Format                                   : UTF-8
  557. Codec ID                                 : S_TEXT/UTF8
  558. Codec ID/Info                            : UTF-8 Plain Text
  559. Duration                                 : 24 min 53 s
  560. Bit rate                                 : 146 b/s
  561. Frame rate                               : 0.237 FPS
  562. Count of elements                        : 354
  563. Stream size                              : 26.7 KiB (0%)
  564. Language                                 : Thai
  565. Default                                  : No
  566. Forced                                   : No
  567. Text #40
  568. ID                                       : 42
  569. Format                                   : UTF-8
  570. Codec ID                                 : S_TEXT/UTF8
  571. Codec ID/Info                            : UTF-8 Plain Text
  572. Duration                                 : 24 min 53 s
  573. Bit rate                                 : 67 b/s
  574. Frame rate                               : 0.237 FPS
  575. Count of elements                        : 354
  576. Stream size                              : 12.3 KiB (0%)
  577. Language                                 : Turkish
  578. Default                                  : No
  579. Forced                                   : No
  580. Text #41
  581. ID                                       : 43
  582. Format                                   : UTF-8
  583. Codec ID                                 : S_TEXT/UTF8
  584. Codec ID/Info                            : UTF-8 Plain Text
  585. Duration                                 : 24 min 53 s
  586. Bit rate                                 : 101 b/s
  587. Frame rate                               : 0.236 FPS
  588. Count of elements                        : 353
  589. Stream size                              : 18.4 KiB (0%)
  590. Language                                 : Ukrainian
  591. Default                                  : No
  592. Forced                                   : No
  593. Text #42
  594. ID                                       : 44
  595. Format                                   : UTF-8
  596. Codec ID                                 : S_TEXT/UTF8
  597. Codec ID/Info                            : UTF-8 Plain Text
  598. Duration                                 : 24 min 53 s
  599. Bit rate                                 : 87 b/s
  600. Frame rate                               : 0.238 FPS
  601. Count of elements                        : 356
  602. Stream size                              : 16.0 KiB (0%)
  603. Language                                 : Vietnamese
  604. Default                                  : No
  605. Forced                                   : No
  606. Text #43
  607. ID                                       : 45
  608. Format                                   : UTF-8
  609. Codec ID                                 : S_TEXT/UTF8
  610. Codec ID/Info                            : UTF-8 Plain Text
  611. Duration                                 : 24 min 53 s
  612. Bit rate                                 : 55 b/s
  613. Frame rate                               : 0.238 FPS
  614. Count of elements                        : 355
  615. Stream size                              : 10.1 KiB (0%)
  616. Title                                    : Cantonese (Traditional)
  617. Language                                 : Chinese (Traditional)
  618. Default                                  : No
  619. Forced                                   : No
复制代码











回复

使用道具 举报

懒得打字嘛,点击右侧快捷回复 【右侧内容,后台自定义】
您需要登录后才可以回帖 登录 | 立即加入

本版积分规则

Archiver|小黑屋| 蓝光电影网 |网站地图

Copyright © 2021 Comsenz Inc. Powered by 蓝光电影网

蓝光电影网

本站内容由用户自主分享和转载自互联网,转载目的在于传递更多信息,并不代表本网赞同其观点和对其真实性负责。

如有侵权、违反国家法律政策行为,请联系我们,我们会第一时间及时清除和处理!

举报反馈邮箱:[email protected]

快速回复 返回顶部 返回列表