找回密码

蓝光电影网

查看: 25|回复: 0

[剧情] 四大家族之龙虎兄弟[国语音轨].Legend.of.the.Brothers.1991.CHINESE.ENSUBBED.1080p.WEBRip.AAC2.0.x264-NOGRP 3.82GB

[复制链接]
蓝光币
1084
发表于 2023-1-10 16:11:59 | 显示全部楼层 |阅读模式


◎译  名 四大师族之龙虎兄弟 / Legend of the Brothers / Legend of the Chiuchow Brothers
◎片  名 四大师族之龍虎兄弟
◎年  代 1991
◎产  地 中国香港
◎类  别 剧情 / 犯罪
◎语  言 粤语
◎上映日期 1991-11-20(中国香港)
◎IMDb链接 https://www.imdb.com/title/tt0102921/
◎豆瓣评分 7.8/10 (3161人评价)
◎豆瓣链接 https://movie.douban.com/subject/10581318/
◎片  长 116分钟
◎导  演 钟少雄 Siu-hung Chung
◎演  员 郑则仕 Kent Cheng
       吕良伟 Ray Lui
       利智 Nina Li Chi
       曾江 Kenneth Tsang
       黄亮光 Kwong Leung Wong
       陈惠敏 Wai-Man Chan
       何家驹 Ka-Kui Ho
       胡枫 Fung Woo
       商天娥 Tin-Ngoh Seung
       黄子扬 Chi Yeung Wong
       刘志荣 Chi-Wing Lau
       韩义生 Yee Sang Hon
       夏年龄 Chun Chau Ha
       史美仪 Mei-Yee Shut
       陈曙光 Stephen Chan Chue-Kwong
       黄仲渠 Chung Kui Wong
       拂晓诗 Ming-Si Lai
       李华干 Wah-Kon Lee
       张兆 Cheung Siu
       余铭衍 Ming-Hin Yu
       张赞生 Tsan-Sang Cheung
       蒋国权 Kwang Che Ching
◎简  介
  1949年,大量本地居民涌入香港,一对儿小兄弟也在这浊世中赴港谋生,他们在码头受尽混混欺侮,幸而两人拜入潮州帮大佬“王老吉”门下获得庇护,并被后者收为养子,得名马少霖(郑则仕 饰)、马世豪(吕良伟 饰),马氏兄弟今后帮助王老吉经营“字花摊”。数年后,二人已经成年,世豪不甘养父的买卖不振,与兄长联络外人将字花摊买卖揽动手中,并依靠报纸的传布气力翻开了场面,同时马少霖投资报业求名求利,成为报业董事会主席。1968年,兄弟俩涉足毒品,与香港大毒枭金牙驹堕入混战,致使养父和众多兄弟死亡,马氏兄弟依靠议员的气力横扫黑帮,一家独大。他们的黑帮奇迹蒸蒸日上之时,廉政公署宣乐建立,情势相持不下……
  1. Video
  2. ID                                       : 1
  3. Format                                   : AVC
  4. Format/Info                              : Advanced Video Codec
  5. Format profile                           : [email protected]
  6. Format settings                          : CABAC / 4 Ref Frames
  7. Format settings, CABAC                   : Yes
  8. Format settings, Reference frames        : 4 frames
  9. Codec ID                                 : V_MPEG4/ISO/AVC
  10. Duration                                 : 1 h 51 min
  11. Bit rate mode                            : Variable
  12. Bit rate                                 : 4 808 kb/s
  13. Width                                    : 1 920 pixels
  14. Height                                   : 1 080 pixels
  15. Display aspect ratio                     : 16:9
  16. Frame rate mode                          : Constant
  17. Frame rate                               : 25.000 FPS
  18. Standard                                 : Component
  19. Color space                              : YUV
  20. Chroma subsampling                       : 4:2:0
  21. Bit depth                                : 8 bits
  22. Scan type                                : Progressive
  23. Bits/(Pixel*Frame)                       : 0.093
  24. Stream size                              : 3.74 GiB (98%)
  25. Language                                 : Chinese
  26. Default                                  : Yes
  27. Forced                                   : No
  28. Color range                              : Limited
  29. Audio
  30. ID                                       : 2
  31. Format                                   : AAC LC
  32. Format/Info                              : Advanced Audio Codec Low Complexity
  33. Codec ID                                 : A_AAC-2
  34. Duration                                 : 1 h 51 min
  35. Bit rate                                 : 93.4 kb/s
  36. Channel(s)                               : 2 channels
  37. Channel layout                           : L R
  38. Sampling rate                            : 48.0 kHz
  39. Frame rate                               : 46.875 FPS (1024 SPF)
  40. Compression mode                         : Lossy
  41. Stream size                              : 74.6 MiB (2%)
  42. Title                                    : Cantonese
  43. Language                                 : Chinese
  44. Default                                  : No
  45. Forced                                   : No
复制代码











回复

使用道具 举报

懒得打字嘛,点击右侧快捷回复 【右侧内容,后台自定义】
您需要登录后才可以回帖 登录 | 立即加入

本版积分规则

Archiver|小黑屋| 蓝光电影网 |网站地图

Copyright © 2021 Comsenz Inc. Powered by 蓝光电影网

蓝光电影网

本站内容由用户自主分享和转载自互联网,转载目的在于传递更多信息,并不代表本网赞同其观点和对其真实性负责。

如有侵权、违反国家法律政策行为,请联系我们,我们会第一时间及时清除和处理!

举报反馈邮箱:[email protected]

快速回复 返回顶部 返回列表