找回密码

蓝光电影网

查看: 18|回复: 0

[恐怖] 怪谈佝偻男.House.of.Terrors.1965.JAPANESE.1080p.AMZN.WEBRip.DDP2.0.x264-NOGRP 4.30GB

[复制链接]
蓝光币
1084
发表于 2023-1-10 16:11:59 | 显示全部楼层 |阅读模式


◎译  名 怪谈佝偻男
◎片  名 怪談せむし男
◎年  代 1965
◎产  地 日本
◎类  别 可骇
◎语  言 日语
◎上映日期 1965
◎IMDb链接 https://www.imdb.com/title/tt0202960/
◎豆瓣链接 https://movie.douban.com/subject/3649627/
◎片  长 81 分钟
◎导  演 佐藤肇 Hajime Sato
◎演  员 西村晃 K? Nishimura
       楠侑子 Y?ko Kusunoki
       Yoko Hayama Yoko Hayama
       春川真澄 Masumi Harukawa
       桑原幸子 Yukiko Kuwahara
       菊池俊辅 Shunsuke Kikuchi
◎简  介
  A man, Chonin Mitake, dies crazy after long agony, and his dead body is cremate. His widow Yoshi,investigating on the past of her husband, goes to the mansion where he had lived, a building leftly nicknamed "satan's pit" (a suggestive statue of Satan is situated in the atrium of the mansion) managed by a hunchbacked caretaker.                                       
                                    Soon some visitors reach the house. the hunchbacked...
  1. Video
  2. ID                                       : 1
  3. Format                                   : AVC
  4. Format/Info                              : Advanced Video Codec
  5. Format profile                           : [email protected]
  6. Format settings                          : CABAC / 4 Ref Frames
  7. Format settings, CABAC                   : Yes
  8. Format settings, Reference frames        : 4 frames
  9. Codec ID                                 : V_MPEG4/ISO/AVC
  10. Duration                                 : 1 h 21 min
  11. Bit rate mode                            : Constant
  12. Bit rate                                 : 7 362 kb/s
  13. Nominal bit rate                         : 10 000 kb/s
  14. Width                                    : 1 920 pixels
  15. Height                                   : 816 pixels
  16. Display aspect ratio                     : 2.35:1
  17. Frame rate mode                          : Constant
  18. Frame rate                               : 23.976 (24000/1001) FPS
  19. Color space                              : YUV
  20. Chroma subsampling                       : 4:2:0
  21. Bit depth                                : 8 bits
  22. Scan type                                : Progressive
  23. Bits/(Pixel*Frame)                       : 0.196
  24. Stream size                              : 4.17 GiB (97%)
  25. Default                                  : Yes
  26. Forced                                   : No
  27. Color range                              : Limited
  28. Color primaries                          : BT.709
  29. Transfer characteristics                 : BT.709
  30. Matrix coefficients                      : BT.709
  31. Audio
  32. ID                                       : 2
  33. Format                                   : E-AC-3
  34. Format/Info                              : Enhanced AC-3
  35. Commercial name                          : Dolby Digital Plus
  36. Codec ID                                 : A_EAC3
  37. Duration                                 : 1 h 21 min
  38. Bit rate mode                            : Constant
  39. Bit rate                                 : 224 kb/s
  40. Channel(s)                               : 2 channels
  41. Channel layout                           : L R
  42. Sampling rate                            : 48.0 kHz
  43. Frame rate                               : 31.250 FPS (1536 SPF)
  44. Compression mode                         : Lossy
  45. Stream size                              : 130 MiB (3%)
  46. Language                                 : Japanese
  47. Service kind                             : Complete Main
  48. Default                                  : Yes
  49. Forced                                   : No
  50. Text
  51. ID                                       : 3
  52. Format                                   : UTF-8
  53. Codec ID                                 : S_TEXT/UTF8
  54. Codec ID/Info                            : UTF-8 Plain Text
  55. Duration                                 : 1 h 20 min
  56. Bit rate                                 : 32 b/s
  57. Frame rate                               : 0.128 FPS
  58. Count of elements                        : 622
  59. Stream size                              : 19.1 KiB (0%)
  60. Language                                 : English
  61. Default                                  : Yes
  62. Forced                                   : No
复制代码











回复

使用道具 举报

懒得打字嘛,点击右侧快捷回复 【右侧内容,后台自定义】
您需要登录后才可以回帖 登录 | 立即加入

本版积分规则

Archiver|小黑屋| 蓝光电影网 |网站地图

Copyright © 2021 Comsenz Inc. Powered by 蓝光电影网

蓝光电影网

本站内容由用户自主分享和转载自互联网,转载目的在于传递更多信息,并不代表本网赞同其观点和对其真实性负责。

如有侵权、违反国家法律政策行为,请联系我们,我们会第一时间及时清除和处理!

举报反馈邮箱:[email protected]

快速回复 返回顶部 返回列表