找回密码

蓝光电影网

查看: 22|回复: 0

[其他] 激流狂潮.A.Wild.Stream.2018.SPANISH.1080p.AMZN.WEBRip.DDP2.0.x264-MUBi 4.58GB

[复制链接]
蓝光币
1084
发表于 2023-1-10 16:11:59 | 显示全部楼层 |阅读模式


◎标  题 急流怒潮
◎译  名 A Wild Stream
◎片  名 Una Corriente Salvaje
◎年  代 2018
◎产  地 墨西哥
◎类  别 记载片
◎语  言 西班牙语
◎上映日期 2018-10-23(墨西哥)
◎IMDb评分 7.2/10 (44人评价)
◎IMDb链接 https://www.imdb.com/title/tt9346782/
◎豆瓣链接 https://movie.douban.com/subject/30405085/
◎片  长 72分钟
◎导  演 Nuria Ibañez
◎简  介
  Chilo y Omar seem to be the only two men on earth. They live on a solitary beach and their constant activity is fishing to survive. Their friendship, surrounded by sensuality, becomes a love story. Through their conversations and their relationship, the film explores and portraits human condition.
  1. Video
  2. ID                                       : 1
  3. Format                                   : AVC
  4. Format/Info                              : Advanced Video Codec
  5. Format profile                           : [email protected]
  6. Format settings                          : CABAC / 4 Ref Frames
  7. Format settings, CABAC                   : Yes
  8. Format settings, Reference frames        : 4 frames
  9. Codec ID                                 : V_MPEG4/ISO/AVC
  10. Duration                                 : 1 h 12 min
  11. Bit rate mode                            : Constant
  12. Bit rate                                 : 8 750 kb/s
  13. Nominal bit rate                         : 10 000 kb/s
  14. Width                                    : 1 920 pixels
  15. Height                                   : 1 080 pixels
  16. Display aspect ratio                     : 16:9
  17. Frame rate mode                          : Constant
  18. Frame rate                               : 24.000 FPS
  19. Color space                              : YUV
  20. Chroma subsampling                       : 4:2:0
  21. Bit depth                                : 8 bits
  22. Scan type                                : Progressive
  23. Bits/(Pixel*Frame)                       : 0.176
  24. Stream size                              : 4.46 GiB (97%)
  25. Language                                 : English (US)
  26. Default                                  : Yes
  27. Forced                                   : No
  28. Color range                              : Limited
  29. Color primaries                          : BT.709
  30. Transfer characteristics                 : BT.709
  31. Matrix coefficients                      : BT.709
  32. Audio
  33. ID                                       : 2
  34. Format                                   : E-AC-3
  35. Format/Info                              : Enhanced AC-3
  36. Commercial name                          : Dolby Digital Plus
  37. Codec ID                                 : A_EAC3
  38. Duration                                 : 1 h 12 min
  39. Bit rate mode                            : Constant
  40. Bit rate                                 : 224 kb/s
  41. Channel(s)                               : 2 channels
  42. Channel layout                           : L R
  43. Sampling rate                            : 48.0 kHz
  44. Frame rate                               : 31.250 FPS (1536 SPF)
  45. Compression mode                         : Lossy
  46. Stream size                              : 117 MiB (2%)
  47. Language                                 : Spanish
  48. Service kind                             : Complete Main
  49. Default                                  : Yes
  50. Forced                                   : No
  51. Text
  52. ID                                       : 3
  53. Format                                   : UTF-8
  54. Codec ID                                 : S_TEXT/UTF8
  55. Codec ID/Info                            : UTF-8 Plain Text
  56. Duration                                 : 1 h 4 min
  57. Bit rate                                 : 31 b/s
  58. Frame rate                               : 0.147 FPS
  59. Count of elements                        : 570
  60. Stream size                              : 14.6 KiB (0%)
  61. Language                                 : English (US)
  62. Default                                  : No
  63. Forced                                   : No
复制代码











回复

使用道具 举报

懒得打字嘛,点击右侧快捷回复 【右侧内容,后台自定义】
您需要登录后才可以回帖 登录 | 立即加入

本版积分规则

Archiver|小黑屋| 蓝光电影网 |网站地图

Copyright © 2021 Comsenz Inc. Powered by 蓝光电影网

蓝光电影网

本站内容由用户自主分享和转载自互联网,转载目的在于传递更多信息,并不代表本网赞同其观点和对其真实性负责。

如有侵权、违反国家法律政策行为,请联系我们,我们会第一时间及时清除和处理!

举报反馈邮箱:[email protected]

快速回复 返回顶部 返回列表