找回密码

蓝光电影网

查看: 44|回复: 1

[2160p-WEB] 寻找传家宝[中文字幕].Finding.Ohana.2021.2160p.NF.WEB-DL.DDP5.1.Atmos.DV.MP4.x265-DVSUX 16.93GB

[复制链接]
蓝光币
1080
发表于 2023-1-10 16:18:19 | 显示全部楼层 |阅读模式


◎标  题 寻觅传家宝
◎译  名 'Ohana:寻觅传家宝(港 / 台)
◎片  名 Finding Ohana
◎年  代 2021
◎产  地 美国
◎类  别 家庭
◎语  言 英语
◎上映日期 2021-01-29(美国收集)
◎IMDb评分 6.1/10 (9145人评价)
◎IMDb链接 https://www.imdb.com/title/tt10332588/
◎豆瓣评分 5.7/10 (213人评价)
◎豆瓣链接 https://movie.douban.com/subject/35014675/
◎导  演 翁菲菲 Jude Weng
◎编  剧 克里斯蒂娜·斯特兰 Christina Strain
◎演  员 胡凯莉 Kelly Hu
       关继威 Jonathan Ke Quan
       克里斯·帕内尔 Chris Parnell
       马克·埃文·杰克逊 Marc Evan Jackson
       布兰斯康比·里奇蒙德 Branscombe Richmond
       欧文·瓦卡罗 Owen Vaccaro
       瑞奇·加西亚 Ricky Garcia
       Ryan Higa Ryan Higa
       亚历克斯·艾欧诺 Alex Aiono
       约瑟夫·特雷帕尼斯 Joseph Trapanese
◎标  签 冒险 / 美国 / 儿童 / 家庭 / 笑剧 / 美国电影 / 奇异 / Netflix
◎简  介
  两位布鲁克林长大的兄妹来到瓦胡岛乡下,他们发现一本记录了丢失已久的宝藏的日志,这个炎天变得冲动听心。两人与新朋友们踏上一场史诗般的冒险,并让他们重新熟悉了夏威夷人的文化和传统。
  1. Video
  2. ID                                       : 1
  3. Format                                   : HEVC
  4. Format/Info                              : High Efficiency Video Coding
  5. Format profile                           : Main [email protected]@Main
  6. HDR format                               : Dolby Vision, Version 1.0, dvhe.05.06, BL+RPU
  7. Codec ID                                 : dvhe
  8. Codec ID/Info                            : High Efficiency Video Coding with Dolby Vision
  9. Duration                                 : 2 h 3 min
  10. Bit rate                                 : 18.9 Mb/s
  11. Width                                    : 3 840 pixels
  12. Height                                   : 2 160 pixels
  13. Display aspect ratio                     : 16:9
  14. Frame rate mode                          : Constant
  15. Frame rate                               : 24.000 FPS
  16. Color space                              : YUV
  17. Chroma subsampling                       : 4:2:0
  18. Bit depth                                : 10 bits
  19. Bits/(Pixel*Frame)                       : 0.095
  20. Stream size                              : 16.3 GiB (96%)
  21. Default                                  : Yes
  22. Alternate group                          : 1
  23. Encoded date                             : UTC 2023-01-10 04:36:14
  24. Tagged date                              : UTC 2023-01-10 04:41:05
  25. Color range                              : Full
  26. Codec configuration box                  : hvcC+dvcC
  27. Audio
  28. ID                                       : 2
  29. Format                                   : E-AC-3 JOC
  30. Format/Info                              : Enhanced AC-3 with Joint Object Coding
  31. Commercial name                          : Dolby Digital Plus with Dolby Atmos
  32. Codec ID                                 : ec-3
  33. Duration                                 : 2 h 3 min
  34. Bit rate mode                            : Constant
  35. Bit rate                                 : 768 kb/s
  36. Maximum bit rate                         : 811 kb/s
  37. Channel(s)                               : 6 channels
  38. Channel layout                           : L R C LFE Ls Rs
  39. Sampling rate                            : 48.0 kHz
  40. Frame rate                               : 31.250 FPS (1536 SPF)
  41. Compression mode                         : Lossy
  42. Stream size                              : 677 MiB (4%)
  43. Title                                    : English
  44. Language                                 : English
  45. Service kind                             : Complete Main
  46. Default                                  : Yes
  47. Alternate group                          : 1
  48. Tagged date                              : UTC 2023-01-10 04:41:05
  49. Complexity index                         : Not present / 16
  50. Number of dynamic objects                : 15
  51. Bed channel count                        : 1 channel
  52. Bed channel configuration                : LFE
  53. Text #1
  54. ID                                       : 3
  55. Format                                   : Timed Text
  56. Codec ID                                 : tx3g
  57. Duration                                 : 1 h 46 min
  58. Bit rate mode                            : Variable
  59. Bit rate                                 : 1 b/s
  60. Frame rate                               : 0.007 FPS
  61. Stream size                              : 644 Bytes (0%)
  62. Title                                    : English
  63. Language                                 : English
  64. Forced                                   : No
  65. Encoded date                             : UTC 2023-01-10 04:40:59
  66. Tagged date                              : UTC 2023-01-10 04:41:05
  67. Text #2
  68. ID                                       : 4
  69. Format                                   : Timed Text
  70. Codec ID                                 : tx3g
  71. Duration                                 : 1 h 54 min
  72. Bit rate mode                            : Variable
  73. Bit rate                                 : 63 b/s
  74. Frame rate                               : 0.458 FPS
  75. Stream size                              : 53.4 KiB (0%)
  76. Title                                    : English
  77. Language                                 : English
  78. Forced                                   : No
  79. Encoded date                             : UTC 2023-01-10 04:41:00
  80. Tagged date                              : UTC 2023-01-10 04:41:05
  81. Text #3
  82. ID                                       : 5
  83. Format                                   : Timed Text
  84. Codec ID                                 : tx3g
  85. Duration                                 : 1 h 59 min
  86. Bit rate mode                            : Variable
  87. Bit rate                                 : 72 b/s
  88. Frame rate                               : 0.511 FPS
  89. Stream size                              : 63.3 KiB (0%)
  90. Title                                    : English
  91. Language                                 : English
  92. Forced                                   : No
  93. Encoded date                             : UTC 2023-01-10 04:41:00
  94. Tagged date                              : UTC 2023-01-10 04:41:05
  95. Text #4
  96. ID                                       : 6
  97. Format                                   : Timed Text
  98. Codec ID                                 : tx3g
  99. Duration                                 : 1 h 53 min
  100. Bit rate mode                            : Variable
  101. Bit rate                                 : 115 b/s
  102. Frame rate                               : 0.453 FPS
  103. Stream size                              : 95.1 KiB (0%)
  104. Title                                    : Arabic
  105. Language                                 : Arabic
  106. Forced                                   : No
  107. Encoded date                             : UTC 2023-01-10 04:41:00
  108. Tagged date                              : UTC 2023-01-10 04:41:05
  109. Text #5
  110. ID                                       : 7
  111. Format                                   : Timed Text
  112. Codec ID                                 : tx3g
  113. Duration                                 : 2 h 0 min
  114. Bit rate mode                            : Variable
  115. Bit rate                                 : 69 b/s
  116. Frame rate                               : 0.430 FPS
  117. Stream size                              : 61.1 KiB (0%)
  118. Title                                    : Chinese-Simplified
  119. Language                                 : Chinese (Simplied)
  120. Forced                                   : No
  121. Encoded date                             : UTC 2023-01-10 04:41:00
  122. Tagged date                              : UTC 2023-01-10 04:41:05
  123. Text #6
  124. ID                                       : 8
  125. Format                                   : Timed Text
  126. Codec ID                                 : tx3g
  127. Duration                                 : 1 h 53 min
  128. Bit rate mode                            : Variable
  129. Bit rate                                 : 75 b/s
  130. Frame rate                               : 0.455 FPS
  131. Stream size                              : 62.0 KiB (0%)
  132. Title                                    : Chinese-Traditional
  133. Language                                 : Chinese (Traditional)
  134. Forced                                   : No
  135. Encoded date                             : UTC 2023-01-10 04:41:00
  136. Tagged date                              : UTC 2023-01-10 04:41:05
  137. Text #7
  138. ID                                       : 9
  139. Format                                   : Timed Text
  140. Codec ID                                 : tx3g
  141. Duration                                 : 2 h 0 min
  142. Bit rate mode                            : Variable
  143. Bit rate                                 : 54 b/s
  144. Frame rate                               : 0.420 FPS
  145. Stream size                              : 47.2 KiB (0%)
  146. Title                                    : Croatian
  147. Language                                 : Croatian
  148. Forced                                   : No
  149. Encoded date                             : UTC 2023-01-10 04:41:00
  150. Tagged date                              : UTC 2023-01-10 04:41:05
  151. Text #8
  152. ID                                       : 10
  153. Format                                   : Timed Text
  154. Codec ID                                 : tx3g
  155. Duration                                 : 2 h 0 min
  156. Bit rate mode                            : Variable
  157. Bit rate                                 : 57 b/s
  158. Frame rate                               : 0.447 FPS
  159. Stream size                              : 50.2 KiB (0%)
  160. Title                                    : Czech
  161. Language                                 : Czech
  162. Forced                                   : No
  163. Encoded date                             : UTC 2023-01-10 04:41:00
  164. Tagged date                              : UTC 2023-01-10 04:41:05
  165. Text #9
  166. ID                                       : 11
  167. Format                                   : Timed Text
  168. Codec ID                                 : tx3g
  169. Duration                                 : 2 h 0 min
  170. Bit rate mode                            : Variable
  171. Bit rate                                 : 55 b/s
  172. Frame rate                               : 0.401 FPS
  173. Stream size                              : 48.2 KiB (0%)
  174. Title                                    : Danish
  175. Language                                 : Danish
  176. Forced                                   : No
  177. Encoded date                             : UTC 2023-01-10 04:41:00
  178. Tagged date                              : UTC 2023-01-10 04:41:05
  179. Text #10
  180. ID                                       : 12
  181. Format                                   : Timed Text
  182. Codec ID                                 : tx3g
  183. Duration                                 : 2 h 0 min
  184. Bit rate mode                            : Variable
  185. Bit rate                                 : 57 b/s
  186. Frame rate                               : 0.362 FPS
  187. Stream size                              : 49.7 KiB (0%)
  188. Title                                    : Dutch
  189. Language                                 : Dutch
  190. Forced                                   : No
  191. Encoded date                             : UTC 2023-01-10 04:41:00
  192. Tagged date                              : UTC 2023-01-10 04:41:05
  193. Text #11
  194. ID                                       : 13
  195. Format                                   : Timed Text
  196. Codec ID                                 : tx3g
  197. Duration                                 : 2 h 0 min
  198. Bit rate mode                            : Variable
  199. Bit rate                                 : 56 b/s
  200. Frame rate                               : 0.428 FPS
  201. Stream size                              : 49.3 KiB (0%)
  202. Title                                    : Filipino
  203. Language                                 : phi
  204. Forced                                   : No
  205. Encoded date                             : UTC 2023-01-10 04:41:00
  206. Tagged date                              : UTC 2023-01-10 04:41:05
  207. Text #12
  208. ID                                       : 14
  209. Format                                   : Timed Text
  210. Codec ID                                 : tx3g
  211. Duration                                 : 2 h 0 min
  212. Bit rate mode                            : Variable
  213. Bit rate                                 : 58 b/s
  214. Frame rate                               : 0.397 FPS
  215. Stream size                              : 51.1 KiB (0%)
  216. Title                                    : Finnish
  217. Language                                 : Finnish
  218. Forced                                   : No
  219. Encoded date                             : UTC 2023-01-10 04:41:01
  220. Tagged date                              : UTC 2023-01-10 04:41:05
  221. Text #13
  222. ID                                       : 15
  223. Format                                   : Timed Text
  224. Codec ID                                 : tx3g
  225. Duration                                 : 1 h 53 min
  226. Bit rate mode                            : Variable
  227. Bit rate                                 : 74 b/s
  228. Frame rate                               : 0.484 FPS
  229. Stream size                              : 61.5 KiB (0%)
  230. Title                                    : French
  231. Language                                 : French
  232. Forced                                   : No
  233. Encoded date                             : UTC 2023-01-10 04:41:01
  234. Tagged date                              : UTC 2023-01-10 04:41:05
  235. Text #14
  236. ID                                       : 16
  237. Format                                   : Timed Text
  238. Codec ID                                 : tx3g
  239. Duration                                 : 1 h 59 min
  240. Bit rate mode                            : Variable
  241. Bit rate                                 : 79 b/s
  242. Frame rate                               : 0.511 FPS
  243. Stream size                              : 68.6 KiB (0%)
  244. Title                                    : French
  245. Language                                 : French
  246. Forced                                   : No
  247. Encoded date                             : UTC 2023-01-10 04:41:01
  248. Tagged date                              : UTC 2023-01-10 04:41:05
  249. Text #15
  250. ID                                       : 17
  251. Format                                   : Timed Text
  252. Codec ID                                 : tx3g
  253. Duration                                 : 1 h 55 min
  254. Bit rate mode                            : Variable
  255. Bit rate                                 : 70 b/s
  256. Frame rate                               : 0.472 FPS
  257. Stream size                              : 59.2 KiB (0%)
  258. Title                                    : German
  259. Language                                 : German
  260. Forced                                   : No
  261. Encoded date                             : UTC 2023-01-10 04:41:01
  262. Tagged date                              : UTC 2023-01-10 04:41:05
  263. Text #16
  264. ID                                       : 18
  265. Format                                   : Timed Text
  266. Codec ID                                 : tx3g
  267. Duration                                 : 1 h 59 min
  268. Bit rate mode                            : Variable
  269. Bit rate                                 : 81 b/s
  270. Frame rate                               : 0.547 FPS
  271. Stream size                              : 70.4 KiB (0%)
  272. Title                                    : German
  273. Language                                 : German
  274. Forced                                   : No
  275. Encoded date                             : UTC 2023-01-10 04:41:01
  276. Tagged date                              : UTC 2023-01-10 04:41:05
  277. Text #17
  278. ID                                       : 19
  279. Format                                   : Timed Text
  280. Codec ID                                 : tx3g
  281. Duration                                 : 2 h 0 min
  282. Bit rate mode                            : Variable
  283. Bit rate                                 : 92 b/s
  284. Frame rate                               : 0.464 FPS
  285. Stream size                              : 81.2 KiB (0%)
  286. Title                                    : Greek
  287. Language                                 : Greek
  288. Forced                                   : No
  289. Encoded date                             : UTC 2023-01-10 04:41:01
  290. Tagged date                              : UTC 2023-01-10 04:41:05
  291. Text #18
  292. ID                                       : 20
  293. Format                                   : Timed Text
  294. Codec ID                                 : tx3g
  295. Duration                                 : 2 h 0 min
  296. Bit rate mode                            : Variable
  297. Bit rate                                 : 94 b/s
  298. Frame rate                               : 0.427 FPS
  299. Stream size                              : 82.3 KiB (0%)
  300. Title                                    : Hebrew
  301. Language                                 : Hebrew
  302. Forced                                   : No
  303. Encoded date                             : UTC 2023-01-10 04:41:01
  304. Tagged date                              : UTC 2023-01-10 04:41:05
  305. Text #19
  306. ID                                       : 21
  307. Format                                   : Timed Text
  308. Codec ID                                 : tx3g
  309. Duration                                 : 2 h 0 min
  310. Bit rate mode                            : Variable
  311. Bit rate                                 : 60 b/s
  312. Frame rate                               : 0.405 FPS
  313. Stream size                              : 52.5 KiB (0%)
  314. Title                                    : Hungarian
  315. Language                                 : Hungarian
  316. Forced                                   : No
  317. Encoded date                             : UTC 2023-01-10 04:41:02
  318. Tagged date                              : UTC 2023-01-10 04:41:05
  319. Text #20
  320. ID                                       : 22
  321. Format                                   : Timed Text
  322. Codec ID                                 : tx3g
  323. Duration                                 : 2 h 0 min
  324. Bit rate mode                            : Variable
  325. Bit rate                                 : 56 b/s
  326. Frame rate                               : 0.427 FPS
  327. Stream size                              : 48.9 KiB (0%)
  328. Title                                    : Indonesian
  329. Language                                 : Indonesian
  330. Forced                                   : No
  331. Encoded date                             : UTC 2023-01-10 04:41:02
  332. Tagged date                              : UTC 2023-01-10 04:41:05
  333. Text #21
  334. ID                                       : 23
  335. Format                                   : Timed Text
  336. Codec ID                                 : tx3g
  337. Duration                                 : 1 h 59 min
  338. Bit rate mode                            : Variable
  339. Bit rate                                 : 74 b/s
  340. Frame rate                               : 0.498 FPS
  341. Stream size                              : 64.4 KiB (0%)
  342. Title                                    : Italian
  343. Language                                 : Italian
  344. Forced                                   : No
  345. Encoded date                             : UTC 2023-01-10 04:41:02
  346. Tagged date                              : UTC 2023-01-10 04:41:05
  347. Text #22
  348. ID                                       : 24
  349. Format                                   : Timed Text
  350. Codec ID                                 : tx3g
  351. Duration                                 : 1 h 54 min
  352. Bit rate mode                            : Variable
  353. Bit rate                                 : 68 b/s
  354. Frame rate                               : 0.466 FPS
  355. Stream size                              : 57.3 KiB (0%)
  356. Title                                    : Italian
  357. Language                                 : Italian
  358. Forced                                   : No
  359. Encoded date                             : UTC 2023-01-10 04:41:03
  360. Tagged date                              : UTC 2023-01-10 04:41:05
  361. Text #23
  362. ID                                       : 25
  363. Format                                   : Timed Text
  364. Codec ID                                 : tx3g
  365. Duration                                 : 2 h 0 min
  366. Bit rate mode                            : Variable
  367. Bit rate                                 : 55 b/s
  368. Frame rate                               : 0.443 FPS
  369. Stream size                              : 48.4 KiB (0%)
  370. Title                                    : Japanese
  371. Language                                 : Japanese
  372. Forced                                   : No
  373. Encoded date                             : UTC 2023-01-10 04:41:03
  374. Tagged date                              : UTC 2023-01-10 04:41:05
  375. Text #24
  376. ID                                       : 26
  377. Format                                   : Timed Text
  378. Codec ID                                 : tx3g
  379. Duration                                 : 2 h 0 min
  380. Bit rate mode                            : Variable
  381. Bit rate                                 : 75 b/s
  382. Frame rate                               : 0.442 FPS
  383. Stream size                              : 65.8 KiB (0%)
  384. Title                                    : Korean
  385. Language                                 : Korean
  386. Forced                                   : No
  387. Encoded date                             : UTC 2023-01-10 04:41:03
  388. Tagged date                              : UTC 2023-01-10 04:41:05
  389. Text #25
  390. ID                                       : 27
  391. Format                                   : Timed Text
  392. Codec ID                                 : tx3g
  393. Duration                                 : 2 h 0 min
  394. Bit rate mode                            : Variable
  395. Bit rate                                 : 55 b/s
  396. Frame rate                               : 0.428 FPS
  397. Stream size                              : 48.5 KiB (0%)
  398. Title                                    : Malay
  399. Language                                 : Malay
  400. Forced                                   : No
  401. Encoded date                             : UTC 2023-01-10 04:41:03
  402. Tagged date                              : UTC 2023-01-10 04:41:05
  403. Text #26
  404. ID                                       : 28
  405. Format                                   : Timed Text
  406. Codec ID                                 : tx3g
  407. Duration                                 : 2 h 0 min
  408. Bit rate mode                            : Variable
  409. Bit rate                                 : 51 b/s
  410. Frame rate                               : 0.393 FPS
  411. Stream size                              : 45.0 KiB (0%)
  412. Title                                    : Norwegian
  413. Language                                 : Norwegian Bokmal
  414. Forced                                   : No
  415. Encoded date                             : UTC 2023-01-10 04:41:03
  416. Tagged date                              : UTC 2023-01-10 04:41:05
  417. Text #27
  418. ID                                       : 29
  419. Format                                   : Timed Text
  420. Codec ID                                 : tx3g
  421. Duration                                 : 2 h 0 min
  422. Bit rate mode                            : Variable
  423. Bit rate                                 : 56 b/s
  424. Frame rate                               : 0.421 FPS
  425. Stream size                              : 49.3 KiB (0%)
  426. Title                                    : Polish
  427. Language                                 : Polish
  428. Forced                                   : No
  429. Encoded date                             : UTC 2023-01-10 04:41:03
  430. Tagged date                              : UTC 2023-01-10 04:41:05
  431. Text #28
  432. ID                                       : 30
  433. Format                                   : Timed Text
  434. Codec ID                                 : tx3g
  435. Duration                                 : 1 h 52 min
  436. Bit rate mode                            : Variable
  437. Bit rate                                 : 70 b/s
  438. Frame rate                               : 0.483 FPS
  439. Stream size                              : 57.4 KiB (0%)
  440. Title                                    : Portuguese
  441. Language                                 : Portuguese
  442. Forced                                   : No
  443. Encoded date                             : UTC 2023-01-10 04:41:03
  444. Tagged date                              : UTC 2023-01-10 04:41:05
  445. Text #29
  446. ID                                       : 31
  447. Format                                   : Timed Text
  448. Codec ID                                 : tx3g
  449. Duration                                 : 1 h 59 min
  450. Bit rate mode                            : Variable
  451. Bit rate                                 : 72 b/s
  452. Frame rate                               : 0.493 FPS
  453. Stream size                              : 62.6 KiB (0%)
  454. Title                                    : Portuguese
  455. Language                                 : Portuguese
  456. Forced                                   : No
  457. Encoded date                             : UTC 2023-01-10 04:41:03
  458. Tagged date                              : UTC 2023-01-10 04:41:05
  459. Text #30
  460. ID                                       : 32
  461. Format                                   : Timed Text
  462. Codec ID                                 : tx3g
  463. Duration                                 : 2 h 0 min
  464. Bit rate mode                            : Variable
  465. Bit rate                                 : 56 b/s
  466. Frame rate                               : 0.418 FPS
  467. Stream size                              : 49.1 KiB (0%)
  468. Title                                    : Portuguese
  469. Language                                 : Portuguese
  470. Forced                                   : No
  471. Encoded date                             : UTC 2023-01-10 04:41:04
  472. Tagged date                              : UTC 2023-01-10 04:41:05
  473. Text #31
  474. ID                                       : 33
  475. Format                                   : Timed Text
  476. Codec ID                                 : tx3g
  477. Duration                                 : 2 h 0 min
  478. Bit rate mode                            : Variable
  479. Bit rate                                 : 65 b/s
  480. Frame rate                               : 0.425 FPS
  481. Stream size                              : 57.4 KiB (0%)
  482. Title                                    : Romanian
  483. Language                                 : Romanian
  484. Forced                                   : No
  485. Encoded date                             : UTC 2023-01-10 04:41:04
  486. Tagged date                              : UTC 2023-01-10 04:41:05
  487. Text #32
  488. ID                                       : 34
  489. Format                                   : Timed Text
  490. Codec ID                                 : tx3g
  491. Duration                                 : 2 h 0 min
  492. Bit rate mode                            : Variable
  493. Bit rate                                 : 91 b/s
  494. Frame rate                               : 0.434 FPS
  495. Stream size                              : 80.4 KiB (0%)
  496. Title                                    : Russian
  497. Language                                 : Russian
  498. Forced                                   : No
  499. Encoded date                             : UTC 2023-01-10 04:41:04
  500. Tagged date                              : UTC 2023-01-10 04:41:05
  501. Text #33
  502. ID                                       : 35
  503. Format                                   : Timed Text
  504. Codec ID                                 : tx3g
  505. Duration                                 : 2 h 0 min
  506. Bit rate mode                            : Variable
  507. Bit rate                                 : 63 b/s
  508. Frame rate                               : 0.433 FPS
  509. Stream size                              : 55.6 KiB (0%)
  510. Title                                    : Spanish-EU
  511. Language                                 : Spanish
  512. Forced                                   : No
  513. Encoded date                             : UTC 2023-01-10 04:41:04
  514. Tagged date                              : UTC 2023-01-10 04:41:05
  515. Text #34
  516. ID                                       : 36
  517. Format                                   : Timed Text
  518. Codec ID                                 : tx3g
  519. Duration                                 : 2 h 0 min
  520. Bit rate mode                            : Variable
  521. Bit rate                                 : 55 b/s
  522. Frame rate                               : 0.435 FPS
  523. Stream size                              : 48.8 KiB (0%)
  524. Title                                    : Spanish-EU
  525. Language                                 : Spanish
  526. Forced                                   : No
  527. Encoded date                             : UTC 2023-01-10 04:41:04
  528. Tagged date                              : UTC 2023-01-10 04:41:05
  529. Text #35
  530. ID                                       : 37
  531. Format                                   : Timed Text
  532. Codec ID                                 : tx3g
  533. Duration                                 : 2 h 0 min
  534. Bit rate mode                            : Variable
  535. Bit rate                                 : 73 b/s
  536. Frame rate                               : 0.495 FPS
  537. Stream size                              : 64.0 KiB (0%)
  538. Title                                    : Spanish-EU
  539. Language                                 : Spanish
  540. Forced                                   : No
  541. Encoded date                             : UTC 2023-01-10 04:41:04
  542. Tagged date                              : UTC 2023-01-10 04:41:05
  543. Text #36
  544. ID                                       : 38
  545. Format                                   : Timed Text
  546. Codec ID                                 : tx3g
  547. Duration                                 : 2 h 0 min
  548. Bit rate mode                            : Variable
  549. Bit rate                                 : 57 b/s
  550. Frame rate                               : 0.385 FPS
  551. Stream size                              : 49.8 KiB (0%)
  552. Title                                    : Swedish
  553. Language                                 : Swedish
  554. Forced                                   : No
  555. Encoded date                             : UTC 2023-01-10 04:41:04
  556. Tagged date                              : UTC 2023-01-10 04:41:05
  557. Text #37
  558. ID                                       : 39
  559. Format                                   : Timed Text
  560. Codec ID                                 : tx3g
  561. Duration                                 : 2 h 0 min
  562. Bit rate mode                            : Variable
  563. Bit rate                                 : 148 b/s
  564. Frame rate                               : 0.430 FPS
  565. Stream size                              : 131 KiB (0%)
  566. Title                                    : Thai
  567. Language                                 : Thai
  568. Forced                                   : No
  569. Encoded date                             : UTC 2023-01-10 04:41:04
  570. Tagged date                              : UTC 2023-01-10 04:41:05
  571. Text #38
  572. ID                                       : 40
  573. Format                                   : Timed Text
  574. Codec ID                                 : tx3g
  575. Duration                                 : 2 h 0 min
  576. Bit rate mode                            : Variable
  577. Bit rate                                 : 58 b/s
  578. Frame rate                               : 0.428 FPS
  579. Stream size                              : 51.1 KiB (0%)
  580. Title                                    : Turkish
  581. Language                                 : Turkish
  582. Forced                                   : No
  583. Encoded date                             : UTC 2023-01-10 04:41:04
  584. Tagged date                              : UTC 2023-01-10 04:41:05
  585. Text #39
  586. ID                                       : 41
  587. Format                                   : Timed Text
  588. Codec ID                                 : tx3g
  589. Duration                                 : 2 h 0 min
  590. Bit rate mode                            : Variable
  591. Bit rate                                 : 85 b/s
  592. Frame rate                               : 0.433 FPS
  593. Stream size                              : 74.9 KiB (0%)
  594. Title                                    : Ukrainian
  595. Language                                 : Ukrainian
  596. Forced                                   : No
  597. Encoded date                             : UTC 2023-01-10 04:41:04
  598. Tagged date                              : UTC 2023-01-10 04:41:05
  599. Text #40
  600. ID                                       : 42
  601. Format                                   : Timed Text
  602. Codec ID                                 : tx3g
  603. Duration                                 : 2 h 0 min
  604. Bit rate mode                            : Variable
  605. Bit rate                                 : 79 b/s
  606. Frame rate                               : 0.414 FPS
  607. Stream size                              : 69.8 KiB (0%)
  608. Title                                    : Vietnamese
  609. Language                                 : Vietnamese
  610. Forced                                   : No
  611. Encoded date                             : UTC 2023-01-10 04:41:05
  612. Tagged date                              : UTC 2023-01-10 04:41:05
复制代码











回复

使用道具 举报

蓝光币
89
发表于 2023-1-11 19:20:57 | 显示全部楼层

这东西我收了!谢谢楼主!蓝光电影网真好!
回复 支持 反对

使用道具 举报

懒得打字嘛,点击右侧快捷回复 【右侧内容,后台自定义】
您需要登录后才可以回帖 登录 | 立即加入

本版积分规则

Archiver|小黑屋| 蓝光电影网 |网站地图

Copyright © 2021 Comsenz Inc. Powered by 蓝光电影网

蓝光电影网

本站内容由用户自主分享和转载自互联网,转载目的在于传递更多信息,并不代表本网赞同其观点和对其真实性负责。

如有侵权、违反国家法律政策行为,请联系我们,我们会第一时间及时清除和处理!

举报反馈邮箱:[email protected]

快速回复 返回顶部 返回列表